[ Сегодня на трекере фрилич! Идет свободное скачивание без начисления Download ]

Various Artists - Dance Sensation - Mega Party Mix (1991) [FLAC|Lossless]<Pop>

 

Создавать темы 17-Дек-2014 11:56

-Various Artists - Dance Sensation - Mega Party Mix (1991)- Год: 1991
Жанр: Pop
Продолжительность: 00:58:51-Кодек: FLAC
Битрейт: Lossless
Тип раздачи: image+.cue-Треклист:
01 - Gary Roach – Tribute To Elvis Medley
02 - Cue – The Smokey Hit Connection Medley
03 - Daniel David – Lovers Hit Connection Medley
04 - Mayflower – The German Hit Connection Medley
05 - Concord – Brasilien Hit Connection Medley
06 - The Beatles Revival Band – Imagine John Medley
07 - Francesco Napoli – Balla Balla Vol.2 Medley
08 - Oriental Dance Express – Oriental Dance Express Medley
-

Подробнее&#58;

Gary Roach - Tribute To Elvis
This Is The Night
Teddy Bear
Good Luck Charm
Don't Be Cruel
Such A Night
Teddy Bear
This Is The Night
That's All Right
All Shook Up
Blue Suede Shoes
Hound Dog
This Is The Night
Cue - The Smokey Hit Connection
Out Of The Blue
Take Good Care Of My Baby
Needles And Pins
Stumblin' In
For A Few Dollars More
Lay Back In The Armes Of Someone
If You Think You Know How To Love Me
Living Next Door To Alice
Mexican Girl
Daniel David - Lovers Hit Connection
Young Girl's Beat
The Sun Ain't Gonna Shine Anymore
You've Lost That Loving Feeling
She's A Lady
Mandy
Suspicious Minds
Please Release Me
Here Comes That Rainy Day Feeling Again
Young Girl
Mayflower - The German Hit Connection
Bumm Bumm
Rosamunde
Glad, Sad, Crazy Or Mad
Anneliese
Tonight
Riding Along
She Is The Prettiest Girl In Town
Heidi
I Lost My Heart In Heidelberg
Wooden Heart
Bumm Bumm
Concord - Brasilien Hit Connection
Lambada
Apita
Lambada
Fantasia
Lambada
The Beatles Revival Band - Imagine John
Imagine John
I'm The Walrus
Strawberry Fields
Woman
Girl
Imagine
Across The Universe
Francesco Napoli - Balla Balla Vol. 2
Balla
Buona sera
Marina
Chariot
Una festa sui prati
Il Mondo
Cin Cin
La Lontanaza
Tornero
Arrivederci Roma
Oriental Dance Express - Oriental Dance Express
Missing Link
Caravan
Persian Market
Salome
Ride To Agadir
Bolero
Arabian Affair
Missing Link

Отчёт ЕАС&#58;

Exact Audio Copy V1.0 beta 3 from 29. August 2011
Отчёт EAC об извлечении, выполненном 27. декабря 2011, 13:12
Various / Mega Party Mix
Дисковод: TEAC    DV-W518GM   Adapter: 2  ID: 0
Режим чтения                 : Достоверность
Использование точного потока : Да
Отключение кэша аудио        : Да
Использование указателей C2  : Нет
Коррекция смещения при чтении                     : 6
Способность читать области Lead-in и Lead-out     : Нет
Заполнение пропущенных сэмплов тишиной            : Да
Удаление блоков с тишиной в начале и конце        : Нет
При вычислениях CRC использовались нулевые сэмплы : Да
Интерфейс                                         : Установленный внешний ASPI-интерфейс
Выходной формат          : Пользовательский кодировщик
Выбранный битрейт        : 128 kBit/s
Качество                 : Высокий
Добавление ID3-тега      : Нет
Утилита сжатия           : C:\Program Files (x86)\Exact Audio Copy\Flac\flac.exe
Дополнительные параметры : -V -8 -T "Genre=%genre%" -T "Artist=%artist%" -T "Title=%title%" -T "Album=%albumtitle%" -T "Date=%year%" -T "Tracknumber=%tracknr%" -T "Comment=%comment%" %source%
TOC извлечённого CD
     Трек |   Старт  | Длительность | Начальный сектор | Конечный сектор
    ---------------------------------------------------------------------
       1  |  0:00.33 |    5:45.50   |          33      |      25957
       2  |  5:46.08 |    8:50.45   |       25958      |      65752
       3  | 14:36.53 |    7:02.65   |       65753      |      97467
       4  | 21:39.43 |    6:39.32   |       97468      |     127424
       5  | 28:19.00 |    7:12.53   |      127425      |     159877
       6  | 35:31.53 |    8:01.12   |      159878      |     195964
       7  | 43:32.65 |    7:32.43   |      195965      |     229907
       8  | 51:05.33 |    7:46.12   |      229908      |     264869
Характеристики диапазона извлечения и сообщения об ошибках
Выбранный диапазон
     Имя файла D:\05\Various - Mega Party Mix.wav
     Пиковый уровень 99.0 %
     Скорость извлечения 3.0 X
     Качество диапазона 100.0 %
     CRC теста 392E2289
     CRC копии 392E2289
     Копирование... OK
Ошибок не произошло
AccurateRip: сводка
Трек  1  отсутствует в базе данных
Трек  2  отсутствует в базе данных
Трек  3  отсутствует в базе данных
Трек  4  отсутствует в базе данных
Трек  5  отсутствует в базе данных
Трек  6  отсутствует в базе данных
Трек  7  отсутствует в базе данных
Трек  8  отсутствует в базе данных
Ни одного трека нет в базе AccurateRip
Конец отчёта
==== Контрольная сумма отчёта 629FD96B5D8C29E4939009CE181F4D0D1ED287BF159BFF2C0318B71E5DEC3D8B ====

Отчёт auCDtect Task manager&#58;

-----------------------
DON'T MODIFY THIS FILE
-----------------------
PERFORMER: auCDtect Task Manager, ver. 1.5.1RC6 build 1.5.1.7
Copyright (c) 2008-2010 y-soft. All rights reserved
http://y-soft.org
ANALYZER: auCDtect: CD records authenticity detector, version 0.8.2
Copyright (c) 2004 Oleg Berngardt. All rights reserved.
Copyright (c) 2004 Alexander Djourik. All rights reserved.
FILE: Various - Mega Party Mix.flac
  Size: 409293991 Hash: 2D11627D08F901C32DBAE3B189C37F17 Accuracy: -m0
  Conclusion: MPEG 95%
  Signature: 1E68838B2BB25438C459E2B8033056197E32ACA1
-
Яндекс.Метрика
Рейтинг@Mail.ru