[ Сегодня на трекере фрилич! Идет свободное скачивание без начисления Download ]

Various Artists - The Best Of Spacesound Records Vol.1 (2009) [FLAC|Lossless]<Synth-Pop>

 

Создавать темы 17-Дек-2014 11:56

-Various Artists - The Best Of Spacesound Records Vol.1 (2009)- Год: 2009
Жанр: Synth-Pop
Продолжительность: 01:19:56
Кодек: FLAC
Битрейт: Lossless
Трек лист:
01. A.M. Samurai - Secret Entrance
02. Vanello - Fly, Rocket !
03. Marco Rochowski - Orbit Of Fire (Remix)
04. Space Project - Abandoned Places
05. Starlight - Moon Express
06. Galaxy Hunter - Silver Moon
07. Dreamtime - Escape To The Past
08. Vocoderion - Intergalactic Race
09. Vanello - Planet Synth
10. Marco Rochowski - Cosmic Renaissance (Remix)
11. Anders Lundqvist - The Search For Otherland
12. Staffan Ohman - Mission To Accomplish
13. Prodomo - Black Hole
14. Prometheus - Eudaimonia

Отчёт ЕАС&#58;

Exact Audio Copy V0.99 prebeta 5 from 4. May 2009
Отчёт EAC об извлечении, выполненном 26. ноября 2010, 19:31
Various / The Best Of Spacesound Records Vol.1
Дисковод: Optiarc DVD RW AD-5200A   Adapter: 0  ID: 0
Режим чтения                 : Достоверность
Использование точного потока : Да
Отключение кэша аудио        : Да
Использование указателей C2  : Нет
Коррекция смещения при чтении                     : 48
Способность читать области Lead-in и Lead-out     : Нет
Заполнение пропущенных сэмплов тишиной            : Да
Удаление блоков с тишиной в начале и конце        : Нет
При вычислениях CRC использовались нулевые сэмплы : Да
Интерфейс                                         : Встроенный Win32-интерфейс для Win NT/2000
Выходной формат : Внутренние WAV-операции
Формат сэмплов  : 44.100 Гц; 16 бит; стерео
TOC извлечённого CD
     Трек |   Старт  | Длительность | Начальный сектор | Конечный сектор
    ---------------------------------------------------------------------
       1  |  0:00.00 |    7:23.00   |           0      |      33224
       2  |  7:23.00 |    4:54.00   |       33225      |      55274
       3  | 12:17.00 |    8:01.00   |       55275      |      91349
       4  | 20:18.00 |    5:54.00   |       91350      |     117899
       5  | 26:12.00 |    5:32.00   |      117900      |     142799
       6  | 31:44.00 |    5:23.00   |      142800      |     167024
       7  | 37:07.00 |    6:15.00   |      167025      |     195149
       8  | 43:22.00 |    4:34.00   |      195150      |     215699
       9  | 47:56.00 |    4:58.00   |      215700      |     238049
      10  | 52:54.00 |    7:39.00   |      238050      |     272474
      11  | 60:33.00 |    5:01.00   |      272475      |     295049
      12  | 65:34.00 |    4:41.00   |      295050      |     316124
      13  | 70:15.00 |    5:01.00   |      316125      |     338699
      14  | 75:16.00 |    4:40.00   |      338700      |     359699
Характеристики диапазона извлечения и сообщения об ошибках
Выбранный диапазон
     Имя файла D:\All\Music\Various - The Best Of Spacesound Records Vol.1\Various - The Best Of Spacesound Records Vol.1.wav
     Пиковый уровень 98.6 %
     Качество диапазона 99.9 %
     CRC теста 7B89913C
     CRC копии 7B89913C
     Копирование... OK
Ошибок не произошло
AccurateRip: сводка
Трек  1  точное извлечение (доверие 1)  [C35134F7]
Трек  2  точное извлечение (доверие 1)  [1CD27D3A]
Трек  3  точное извлечение (доверие 1)  [B6D9ED8F]
Трек  4  точное извлечение (доверие 1)  [64E2F818]
Трек  5  точное извлечение (доверие 1)  [05262059]
Трек  6  точное извлечение (доверие 1)  [FDAB7B3F]
Трек  7  точное извлечение (доверие 1)  [F62B7038]
Трек  8  точное извлечение (доверие 1)  [2A2DCC5B]
Трек  9  точное извлечение (доверие 1)  [5BB60C39]
Трек 10  точное извлечение (доверие 1)  [5851C078]
Трек 11  точное извлечение (доверие 1)  [A26BD9F6]
Трек 12  точное извлечение (доверие 1)  [B0AA25ED]
Трек 13  точное извлечение (доверие 1)  [91724714]
Трек 14  точное извлечение (доверие 1)  [75215984]
Все треки извлечены точно
Конец отчёта

Отчёт auCDtect Task manager&#58;

-----------------------
DON'T MODIFY THIS FILE
-----------------------
PERFORMER: auCDtect Task Manager, ver. 1.5.1RC4 build 1.5.1.5
Copyright (c) 2008-2010 y-soft. All rights reserved
http://y-soft.org
ANALYZER: auCDtect: CD records authenticity detector, version 0.8.2
Copyright (c) 2004 Oleg Berngardt. All rights reserved.
Copyright (c) 2004 Alexander Djourik. All rights reserved.
FILE: Various - The Best Of Spacesound Records Vol.1.flac
  Size: 588283753 Hash: CB33B87D5E40BC8052B4851A85B8A619 Accuracy: -m0
  Conclusion: CDDA 100%
  Signature: 8568ACB3301EF6D27638118802C76B872F2EE3B6
Время раздачи: С 21:00 до 0:00
Яндекс.Метрика
Рейтинг@Mail.ru