[ Сегодня на трекере фрилич! Идет свободное скачивание без начисления Download ]

Darren Hayes - Secret Codes and Battleships (Deluxe Version) (2011) [FLAC|Lossless]<Pop, Europop>

 

Создавать темы 17-Дек-2014 11:56

-Darren Hayes - Secret Codes and Battleships (Deluxe Version - 2CD)- Год: 2011
Жанр: Pop, Europop
Лэйбл: Powdered Sugar [PSUG9CDX]
Аудио Кодек: FLAC
Аудио Битрейт: Lossless
Тип Рипа: Tracks+.cue
Наличие Сканов: Да
Продолжительность: 01:39:28-CD1 - Secret Codes 00:47:37
Треклист:
01. Taken By The Sea :: 04:24
02. Don't Give Up :: 03:44
03. Nearly Love :: 03:11
04. Black Out The Sun :: 04:10
05. Talk Talk Talk :: 03:39
06. Bloodstained Heart :: 03:51
07. God Walking Into The Room :: 04:22
08. Hurt :: 03:19
09. Roses :: 04:19
10. Stupid Mistake :: 04:38
11. Cruel Cruel World :: 03:53
12. The Siren's Call :: 04:01-CD2 - Battleships 00:51:51
01. Explode :: 04:26
02. Perfect :: 04:27
03. Tiny Little Flashlights :: 04:02
04. Wrecking Ball :: 03:30
05. Nothing :: 03:32
06. Glorious :: 06:17
07. Talk Talk Talk (Live in the Attic) :: 04:02
08. Black Out The Sun (Live in the Attic) :: 04:15
09. The Sweetest Lullaby (Demo) :: 05:57
10. Hurt (Demo) :: 03:41
11. Stupid Mistake (Demo) :: 03:35
12. Perfect (Demo) :: 04:02

Отчёт EAC

Exact Audio Copy V1.0 beta 3 from 29. August 2011
EAC extraction logfile from 2. November 2011, 16:10
Darren Hayes / Secret Codes And Battleships (Deluxe Version) [Disc1]
Used drive  : SONY    DVD-ROM DDU1615S   Adapter: 0  ID: 1
Read mode               : Secure
Utilize accurate stream : Yes
Defeat audio cache      : Yes
Make use of C2 pointers : No
Read offset correction                      : 6
Overread into Lead-In and Lead-Out          : No
Fill up missing offset samples with silence : Yes
Delete leading and trailing silent blocks   : No
Null samples used in CRC calculations       : Yes
Used interface                              : Native Win32 interface for Win NT & 2000
Gap handling                                : Appended to previous track
Used output format              : User Defined Encoder
Selected bitrate                : 1024 kBit/s
Quality                         : High
Add ID3 tag                     : No
Command line compressor         : C:\Program Files\Exact Audio Copy\Flac\flac.exe
Additional command line options : -8 -V -T "ARTIST=%artist%" -T "TITLE=%title%" -T "ALBUM=%albumtitle%" -T "DATE=%year%" -T "TRACKNUMBER=%tracknr%" -T "GENRE=%genre%" -T "PERFORMER=%albuminterpret%" -T "COMPOSER=%composer%" %haslyrics%--tag-from-file=LYRICS="%lyricsfile%"%haslyrics% -T "ALBUMARTIST=%albumartist%" -T "DISCNUMBER=%cdnumber%" -T "TOTALDISCS=%totalcds%" -T "TOTALTRACKS=%numtracks%" -T "COMMENT=%comment%" %source% -o %dest%
TOC of the extracted CD
     Track |   Start  |  Length  | Start sector | End sector
    ---------------------------------------------------------
        1  |  0:00.00 |  4:24.63 |         0    |    19862
        2  |  4:24.63 |  3:44.18 |     19863    |    36680
        3  |  8:09.06 |  3:11.42 |     36681    |    51047
        4  | 11:20.48 |  4:10.20 |     51048    |    69817
        5  | 15:30.68 |  3:39.26 |     69818    |    86268
        6  | 19:10.19 |  3:51.11 |     86269    |   103604
        7  | 23:01.30 |  4:22.72 |    103605    |   123326
        8  | 27:24.27 |  3:19.65 |    123327    |   138316
        9  | 30:44.17 |  4:19.35 |    138317    |   157776
       10  | 35:03.52 |  4:38.49 |    157777    |   178675
       11  | 39:42.26 |  3:53.35 |    178676    |   196185
       12  | 43:35.61 |  4:01.19 |    196186    |   214279
Track  1
     Filename C:\Program Files\Exact Audio Copy\Flac\01 - Taken By The Sea.wav
     Pre-gap length  0:00:02.00
     Peak level 98.8 %
     Extraction speed 16.5 X
     Track quality 100.0 %
     Test CRC 4C560A48
     Copy CRC 4C560A48
     Track not present in AccurateRip database
     Copy OK
Track  2
     Filename C:\Program Files\Exact Audio Copy\Flac\02 - Don't Give Up.wav
     Peak level 98.8 %
     Extraction speed 9.7 X
     Track quality 100.0 %
     Test CRC DADB92CD
     Copy CRC DADB92CD
     Track not present in AccurateRip database
     Copy OK
Track  3
     Filename C:\Program Files\Exact Audio Copy\Flac\03 - Nearly Love.wav
     Peak level 98.8 %
     Extraction speed 9.3 X
     Track quality 99.9 %
     Test CRC 2B2BDB0A
     Copy CRC 2B2BDB0A
     Track not present in AccurateRip database
     Copy OK
Track  4
     Filename C:\Program Files\Exact Audio Copy\Flac\04 - Black Out The Sun.wav
     Peak level 98.8 %
     Extraction speed 10.9 X
     Track quality 100.0 %
     Test CRC 9B10B6F1
     Copy CRC 9B10B6F1
     Track not present in AccurateRip database
     Copy OK
Track  5
     Filename C:\Program Files\Exact Audio Copy\Flac\05 - Talk Talk Talk.wav
     Pre-gap length  0:00:00.34
     Peak level 98.8 %
     Extraction speed 11.2 X
     Track quality 100.0 %
     Test CRC 04B437FC
     Copy CRC 04B437FC
     Track not present in AccurateRip database
     Copy OK
Track  6
     Filename C:\Program Files\Exact Audio Copy\Flac\06 - Bloodstained Heart.wav
     Peak level 98.8 %
     Extraction speed 11.9 X
     Track quality 100.0 %
     Test CRC 1721DC0D
     Copy CRC 1721DC0D
     Track not present in AccurateRip database
     Copy OK
Track  7
     Filename C:\Program Files\Exact Audio Copy\Flac\07 - God Walking Into The Room.wav
     Peak level 98.8 %
     Extraction speed 11.6 X
     Track quality 99.9 %
     Test CRC BE4E4C69
     Copy CRC BE4E4C69
     Track not present in AccurateRip database
     Copy OK
Track  8
     Filename C:\Program Files\Exact Audio Copy\Flac\08 - Hurt.wav
     Peak level 98.8 %
     Extraction speed 11.3 X
     Track quality 99.9 %
     Test CRC D9B9FFEF
     Copy CRC D9B9FFEF
     Track not present in AccurateRip database
     Copy OK
Track  9
     Filename C:\Program Files\Exact Audio Copy\Flac\09 - Roses.wav
     Peak level 98.8 %
     Extraction speed 13.2 X
     Track quality 100.0 %
     Test CRC 223B259A
     Copy CRC 223B259A
     Track not present in AccurateRip database
     Copy OK
Track 10
     Filename C:\Program Files\Exact Audio Copy\Flac\10 - Stupid Mistake.wav
     Peak level 98.8 %
     Extraction speed 13.8 X
     Track quality 100.0 %
     Test CRC 4E61D68A
     Copy CRC 4E61D68A
     Track not present in AccurateRip database
     Copy OK
Track 11
     Filename C:\Program Files\Exact Audio Copy\Flac\11 - Cruel Cruel World.wav
     Pre-gap length  0:00:01.49
     Peak level 98.8 %
     Extraction speed 14.0 X
     Track quality 100.0 %
     Test CRC 48A0F1F0
     Copy CRC 48A0F1F0
     Track not present in AccurateRip database
     Copy OK
Track 12
     Filename C:\Program Files\Exact Audio Copy\Flac\12 - The Siren's Call.wav
     Peak level 99.4 %
     Extraction speed 14.1 X
     Track quality 100.0 %
     Test CRC 766B0B89
     Copy CRC 766B0B89
     Track not present in AccurateRip database
     Copy OK
End of status report
==== Log checksum 7D510AA32BB68C6AC615312170D1AD7A7C36F8F936C51C6525B494D275122B5B ====
Exact Audio Copy V1.0 beta 3 from 29. August 2011
EAC extraction logfile from 2. November 2011, 16:11
Darren Hayes / Secret Codes And Battleships (Deluxe Version) [Disc1]
Used drive  : SONY    DVD-ROM DDU1615S   Adapter: 0  ID: 1
Read mode               : Secure
Utilize accurate stream : Yes
Defeat audio cache      : Yes
Make use of C2 pointers : No
Read offset correction                      : 6
Overread into Lead-In and Lead-Out          : No
Fill up missing offset samples with silence : Yes
Delete leading and trailing silent blocks   : No
Null samples used in CRC calculations       : Yes
Used interface                              : Native Win32 interface for Win NT & 2000
Gap handling                                : Appended to previous track
Used output format              : User Defined Encoder
Selected bitrate                : 1024 kBit/s
Quality                         : High
Add ID3 tag                     : No
Command line compressor         : C:\Program Files\Exact Audio Copy\Flac\flac.exe
Additional command line options : -8 -V -T "ARTIST=%artist%" -T "TITLE=%title%" -T "ALBUM=%albumtitle%" -T "DATE=%year%" -T "TRACKNUMBER=%tracknr%" -T "GENRE=%genre%" -T "PERFORMER=%albuminterpret%" -T "COMPOSER=%composer%" %haslyrics%--tag-from-file=LYRICS="%lyricsfile%"%haslyrics% -T "ALBUMARTIST=%albumartist%" -T "DISCNUMBER=%cdnumber%" -T "TOTALDISCS=%totalcds%" -T "TOTALTRACKS=%numtracks%" -T "COMMENT=%comment%" %source% -o %dest%
TOC of the extracted CD
     Track |   Start  |  Length  | Start sector | End sector
    ---------------------------------------------------------
        1  |  0:00.00 |  4:24.63 |         0    |    19862
        2  |  4:24.63 |  3:44.18 |     19863    |    36680
        3  |  8:09.06 |  3:11.42 |     36681    |    51047
        4  | 11:20.48 |  4:10.20 |     51048    |    69817
        5  | 15:30.68 |  3:39.26 |     69818    |    86268
        6  | 19:10.19 |  3:51.11 |     86269    |   103604
        7  | 23:01.30 |  4:22.72 |    103605    |   123326
        8  | 27:24.27 |  3:19.65 |    123327    |   138316
        9  | 30:44.17 |  4:19.35 |    138317    |   157776
       10  | 35:03.52 |  4:38.49 |    157777    |   178675
       11  | 39:42.26 |  3:53.35 |    178676    |   196185
       12  | 43:35.61 |  4:01.19 |    196186    |   214279
Track  1
     Filename C:\Program Files\Exact Audio Copy\Flac\01 - Taken By The Sea.wav
     Pre-gap length  0:00:02.00
     Peak level 98.8 %
     Extraction speed 16.5 X
     Track quality 100.0 %
     Test CRC 4C560A48
     Copy CRC 4C560A48
     Track not present in AccurateRip database
     Copy OK
Track  2
     Filename C:\Program Files\Exact Audio Copy\Flac\02 - Don't Give Up.wav
     Peak level 98.8 %
     Extraction speed 9.7 X
     Track quality 100.0 %
     Test CRC DADB92CD
     Copy CRC DADB92CD
     Track not present in AccurateRip database
     Copy OK
Track  3
     Filename C:\Program Files\Exact Audio Copy\Flac\03 - Nearly Love.wav
     Peak level 98.8 %
     Extraction speed 9.3 X
     Track quality 99.9 %
     Test CRC 2B2BDB0A
     Copy CRC 2B2BDB0A
     Track not present in AccurateRip database
     Copy OK
Track  4
     Filename C:\Program Files\Exact Audio Copy\Flac\04 - Black Out The Sun.wav
     Peak level 98.8 %
     Extraction speed 10.9 X
     Track quality 100.0 %
     Test CRC 9B10B6F1
     Copy CRC 9B10B6F1
     Track not present in AccurateRip database
     Copy OK
Track  5
     Filename C:\Program Files\Exact Audio Copy\Flac\05 - Talk Talk Talk.wav
     Pre-gap length  0:00:00.34
     Peak level 98.8 %
     Extraction speed 11.2 X
     Track quality 100.0 %
     Test CRC 04B437FC
     Copy CRC 04B437FC
     Track not present in AccurateRip database
     Copy OK
Track  6
     Filename C:\Program Files\Exact Audio Copy\Flac\06 - Bloodstained Heart.wav
     Peak level 98.8 %
     Extraction speed 11.9 X
     Track quality 100.0 %
     Test CRC 1721DC0D
     Copy CRC 1721DC0D
     Track not present in AccurateRip database
     Copy OK
Track  7
     Filename C:\Program Files\Exact Audio Copy\Flac\07 - God Walking Into The Room.wav
     Peak level 98.8 %
     Extraction speed 11.6 X
     Track quality 99.9 %
     Test CRC BE4E4C69
     Copy CRC BE4E4C69
     Track not present in AccurateRip database
     Copy OK
Track  8
     Filename C:\Program Files\Exact Audio Copy\Flac\08 - Hurt.wav
     Peak level 98.8 %
     Extraction speed 11.3 X
     Track quality 99.9 %
     Test CRC D9B9FFEF
     Copy CRC D9B9FFEF
     Track not present in AccurateRip database
     Copy OK
Track  9
     Filename C:\Program Files\Exact Audio Copy\Flac\09 - Roses.wav
     Peak level 98.8 %
     Extraction speed 13.2 X
     Track quality 100.0 %
     Test CRC 223B259A
     Copy CRC 223B259A
     Track not present in AccurateRip database
     Copy OK
Track 10
     Filename C:\Program Files\Exact Audio Copy\Flac\10 - Stupid Mistake.wav
     Peak level 98.8 %
     Extraction speed 13.8 X
     Track quality 100.0 %
     Test CRC 4E61D68A
     Copy CRC 4E61D68A
     Track not present in AccurateRip database
     Copy OK
Track 11
     Filename C:\Program Files\Exact Audio Copy\Flac\11 - Cruel Cruel World.wav
     Pre-gap length  0:00:01.49
     Peak level 98.8 %
     Extraction speed 14.0 X
     Track quality 100.0 %
     Test CRC 48A0F1F0
     Copy CRC 48A0F1F0
     Track not present in AccurateRip database
     Copy OK
Track 12
     Filename C:\Program Files\Exact Audio Copy\Flac\12 - The Siren's Call.wav
     Peak level 99.4 %
     Extraction speed 14.1 X
     Track quality 100.0 %
     Test CRC 766B0B89
     Copy CRC 766B0B89
     Track not present in AccurateRip database
     Copy OK
None of the tracks are present in the AccurateRip database
No errors occurred
End of status report
==== Log checksum EE4891DE0BDCD95099D09DDB86071B11A1840BD94192235630D326831F672E11 ====
-
Яндекс.Метрика
Рейтинг@Mail.ru