Bonnie Tyler (Gaynor Hopkins) - The Best (1993) [FLAC|Lossless]<Pop Rock / Synth-pop>

 

Создавать темы 17-Дек-2014 11:56

-Bonnie Tyler (Gaynor Hopkins) - The Best (1993)- Год: 1993
Жанр: Pop Rock / Synth-pop
Продолжительность: 01:16:51
Кодек: FLAC
Битрейт: Lossless-Трек лист:
01 - Total Eclipse Of The Heart
02 - Faster Than The Speed Of Night
03 - Have You Ever Seen The Rain
04 - If You Were A Woman (And I Was A Man)
05 - Here She Comes
06 - Loving You's A Dirty Job But Somebody's Gotta Do It
07 - Getting So Excited
08 - Save Up All Your Tears
09 - The Best
10 - Holding Out For A Hero
11 - Married Men
12 - A Rockin' Good Way
(To Mess Around And Fall In Love) (Duet With Shakin' Stevens)
13 - More Than A Lover
14 - Don't Turn Around
15 - Lovers Again
16 - Lost In France
17 - It's A Heartache
18 - To Love Somebody
--

Содержание CUE&#58;

REM GENRE Rock
REM DATE 1993
REM DISCID F2120312
REM COMMENT "ExactAudioCopy v1.0b3"
PERFORMER "Bonnie Tyler"
TITLE "The Best"
FILE "Bonnie Tyler - The Best.flac" WAVE
  TRACK 01 AUDIO
    TITLE "Total Eclipse Of The Heart"
    PERFORMER "Bonnie Tyler"
    INDEX 01 00:00:00
  TRACK 02 AUDIO
    TITLE "Faster Than The Speed Of Night"
    PERFORMER "Bonnie Tyler"
    INDEX 00 04:31:12
    INDEX 01 04:32:27
  TRACK 03 AUDIO
    TITLE "Have You Ever Seen The Rain"
    PERFORMER "Bonnie Tyler"
    INDEX 00 09:12:66
    INDEX 01 09:14:40
  TRACK 04 AUDIO
    TITLE "If You Were A Woman  (And I Was A Man)"
    PERFORMER "Bonnie Tyler"
    INDEX 00 13:20:73
    INDEX 01 13:22:10
  TRACK 05 AUDIO
    TITLE "Here She Comes"
    PERFORMER "Bonnie Tyler"
    INDEX 00 18:37:07
    INDEX 01 18:38:35
  TRACK 06 AUDIO
    TITLE "Loving You's A Dirty Job But Somebody's Gotta Do It"
    PERFORMER "Bonnie Tyler"
    INDEX 00 22:01:05
    INDEX 01 22:02:70
  TRACK 07 AUDIO
    TITLE "Getting So Excited"
    PERFORMER "Bonnie Tyler"
    INDEX 00 27:52:03
    INDEX 01 27:53:22
  TRACK 08 AUDIO
    TITLE "Save Up All Your Tears"
    PERFORMER "Bonnie Tyler"
    INDEX 00 31:23:35
    INDEX 01 31:24:62
  TRACK 09 AUDIO
    TITLE "The Best"
    PERFORMER "Bonnie Tyler"
    INDEX 00 35:28:68
    INDEX 01 35:30:67
  TRACK 10 AUDIO
    TITLE "Holding Out For A Hero"
    PERFORMER "Bonnie Tyler"
    INDEX 00 39:47:24
    INDEX 01 39:48:57
  TRACK 11 AUDIO
    TITLE "Married Men"
    PERFORMER "Bonnie Tyler"
    INDEX 00 44:11:63
    INDEX 01 44:12:72
  TRACK 12 AUDIO
    TITLE "A Rockin' Good Way  (To Mess Around And Fall In Love) (Duet With Shakin' Stev..."
    PERFORMER "Bonnie Tyler"
    INDEX 00 47:59:42
    INDEX 01 48:00:20
  TRACK 13 AUDIO
    TITLE "More Than A Lover"
    PERFORMER "Bonnie Tyler"
    INDEX 00 50:52:24
    INDEX 01 50:53:17
  TRACK 14 AUDIO
    TITLE "Don't Turn Around"
    PERFORMER "Bonnie Tyler"
    INDEX 00 55:05:13
    INDEX 01 55:05:42
  TRACK 15 AUDIO
    TITLE "Lovers Again"
    PERFORMER "Bonnie Tyler"
    INDEX 00 59:20:30
    INDEX 01 59:21:70
  TRACK 16 AUDIO
    TITLE "Lost In France"
    PERFORMER "Bonnie Tyler"
    INDEX 00 63:36:70
    INDEX 01 63:38:25
  TRACK 17 AUDIO
    TITLE "It's A Heartache"
    PERFORMER "Bonnie Tyler"
    INDEX 00 67:30:24
    INDEX 01 67:31:30
  TRACK 18 AUDIO
    TITLE "To Love Somebody"
    PERFORMER "Bonnie Tyler"
    INDEX 00 71:01:23
    INDEX 01 71:02:55

Отчёт EAC

Exact Audio Copy V1.0 beta 3 from 29. August 2011
Отчёт EAC об извлечении, выполненном 11. января 2012, 18:09
Bonnie Tyler / The Best
Дисковод: TEAC    DV-W518GM   Adapter: 2  ID: 0
Режим чтения                 : Достоверность
Использование точного потока : Да
Отключение кэша аудио        : Да
Использование указателей C2  : Нет
Коррекция смещения при чтении                     : 6
Способность читать области Lead-in и Lead-out     : Нет
Заполнение пропущенных сэмплов тишиной            : Да
Удаление блоков с тишиной в начале и конце        : Нет
При вычислениях CRC использовались нулевые сэмплы : Да
Интерфейс                                         : Установленный внешний ASPI-интерфейс
Выходной формат          : Пользовательский кодировщик
Выбранный битрейт        : 128 kBit/s
Качество                 : Высокий
Добавление ID3-тега      : Нет
Утилита сжатия           : C:\Program Files (x86)\Exact Audio Copy\Flac\flac.exe
Дополнительные параметры : -V -8 -T "Genre=%genre%" -T "Artist=%artist%" -T "Title=%title%" -T "Album=%albumtitle%" -T "Date=%year%" -T "Tracknumber=%tracknr%" -T "Comment=%comment%" %source%
TOC извлечённого CD
     Трек |   Старт  | Длительность | Начальный сектор | Конечный сектор
    ---------------------------------------------------------------------
       1  |  0:00.00 |    4:32.27   |           0      |      20426
       2  |  4:32.27 |    4:42.13   |       20427      |      41589
       3  |  9:14.40 |    4:07.45   |       41590      |      60159
       4  | 13:22.10 |    5:16.25   |       60160      |      83884
       5  | 18:38.35 |    3:24.35   |       83885      |      99219
       6  | 22:02.70 |    5:50.27   |       99220      |     125496
       7  | 27:53.22 |    3:31.40   |      125497      |     141361
       8  | 31:24.62 |    4:06.05   |      141362      |     159816
       9  | 35:30.67 |    4:17.65   |      159817      |     179156
      10  | 39:48.57 |    4:24.15   |      179157      |     198971
      11  | 44:12.72 |    3:47.23   |      198972      |     216019
      12  | 48:00.20 |    2:52.72   |      216020      |     228991
      13  | 50:53.17 |    4:12.25   |      228992      |     247916
      14  | 55:05.42 |    4:16.28   |      247917      |     267144
      15  | 59:21.70 |    4:16.30   |      267145      |     286374
      16  | 63:38.25 |    3:53.05   |      286375      |     303854
      17  | 67:31.30 |    3:31.25   |      303855      |     319704
      18  | 71:02.55 |    5:48.52   |      319705      |     345856
Характеристики диапазона извлечения и сообщения об ошибках
Выбранный диапазон
     Имя файла E:\MUZON\Bonnie Tyler\Bonnie.Tyler-The.Best_1993\Bonnie Tyler - The Best.wav
     Пиковый уровень 100.0 %
     Скорость извлечения 3.6 X
     Качество диапазона 100.0 %
     CRC теста CA199AE6
     CRC копии CA199AE6
     Копирование... OK
Ошибок не произошло
Конец отчёта
==== Контрольная сумма отчёта FF5F60F19DF60F4E345738691955792F63E24E403142EAA573C1C24D74866395 ====
-
Яндекс.Метрика
Рейтинг@Mail.ru