[ Сегодня на трекере фрилич! Идет свободное скачивание без начисления Download ]

Modern Talking - Romantic Dreams (1988) [FLAC|Lossless]<EuroPop, Synth-pop, Disco>

 

Создавать темы 17-Дек-2014 11:56

-Modern Talking - Romantic Dreams (1988)- Год: 1988
Label: ©+® 1985-87, 1988 Hansa|BMG Ariola München GmbH. Made in GERMANY
Жанр: EuroPop, Synth-pop, Disco
Продолжительность: 01:04:35
Кодек: FLAC (image + .cue)
Битрейт: Lossless
Трек лист:
01. Geronimo's Cadillac [03:19]
02. Doctor For My Heart [03:20]
03. Romantic Warriors [04:00]
04. The Night Is Yours - The Night Is Mine [05:31]
05. Diamonds Never Made A Lady [04:03]
06. Just We Two (Mona Lisa) [03:58]
07. Heaven Will Know [04:04]
08. Sweet Little Sheila [03:05]
09. There's Too Much Blue In Missing You [04:41]
10. Hey You [03:21]
11. Angie's Heart [03:40]
12. Keep Love Alive [03:25]
13. Jet Airliner [04:23]
14. Wild Wild Water [04:19]
15. Love Don't Live Here Anymore [04:23]
16. Lady Lai [04:59]

Отчёт ЕАС&#58;

Exact Audio Copy V0.99 prebeta 5 from 4. May 2009
Отчёт EAC об извлечении, выполненном 2. мая 2010, 19:35
Modern Talking / Romantic Dreams
Дисковод: ASUS DRW-2014S1T Adapter: 3 ID: 0
Режим чтения : Достоверность
Использование точного потока : Да
Отключение кэша аудио : Да
Использование указателей C2 : Нет
Коррекция смещения при чтении : 6
Способность читать области Lead-in и Lead-out : Нет
Заполнение пропущенных сэмплов тишиной : Да
Удаление блоков с тишиной в начале и конце : Нет
При вычислениях CRC использовались нулевые сэмплы : Да
Интерфейс : Установленный внешний ASPI-интерфейс
Выходной формат : Внутренние WAV-операции
Формат сэмплов : 44.100 Гц; 16 бит; стерео
TOC извлечённого CD
Трек | Старт | Длительность | Начальный сектор | Конечный сектор
---------------------------------------------------------------------
1 | 0:00.00 | 3:19.25 | 0 | 14949
2 | 3:19.25 | 3:20.25 | 14950 | 29974
3 | 6:39.50 | 4:00.00 | 29975 | 47974
4 | 10:39.50 | 5:31.00 | 47975 | 72799
5 | 16:10.50 | 4:03.25 | 72800 | 91049
6 | 20:14.00 | 3:58.25 | 91050 | 108924
7 | 24:12.25 | 4:04.00 | 108925 | 127224
8 | 28:16.25 | 3:05.25 | 127225 | 141124
9 | 31:21.50 | 4:41.00 | 141125 | 162199
10 | 36:02.50 | 3:21.50 | 162200 | 177324
11 | 39:24.25 | 3:40.25 | 177325 | 193849
12 | 43:04.50 | 3:25.50 | 193850 | 209274
13 | 46:30.25 | 4:23.25 | 209275 | 229024
14 | 50:53.50 | 4:19.50 | 229025 | 248499
15 | 55:13.25 | 4:23.00 | 248500 | 268224
16 | 59:36.25 | 4:59.50 | 268225 | 290699
Характеристики диапазона извлечения и сообщения об ошибках
Выбранный диапазон
Имя файла F:\~ Modern Talking~\1988- Romantic Dreams (Ariola, 297 105)\Modern Talking - Romantic Dreams.wav
Пиковый уровень 100.0 %
Качество диапазона 100.0 %
CRC теста F2C8BC2B
CRC копии F2C8BC2B
Копирование... OK
Ошибок не произошло
AccurateRip: сводка
Трек 1 точное извлечение (доверие 3) [5B106939]
Трек 2 точное извлечение (доверие 3) [50C9231B]
Трек 3 точное извлечение (доверие 3) [48B5B97F]
Трек 4 точное извлечение (доверие 3) [D1CCB955]
Трек 5 точное извлечение (доверие 3) [E6F69371]
Трек 6 точное извлечение (доверие 3) [61FCD1E4]
Трек 7 точное извлечение (доверие 3) [6D273BAC]
Трек 8 точное извлечение (доверие 3) [79026ED3]
Трек 9 точное извлечение (доверие 3) [2D59CAB5]
Трек 10 точное извлечение (доверие 3) [BACAB0E1]
Трек 11 точное извлечение (доверие 3) [4FBB4104]
Трек 12 точное извлечение (доверие 3) [FA992312]
Трек 13 точное извлечение (доверие 3) [B2C6B80B]
Трек 14 точное извлечение (доверие 3) [AB4CAFB3]
Трек 15 точное извлечение (доверие 3) [D162974D]
Трек 16 точное извлечение (доверие 3) [E8A2693A]
Все треки извлечены точно
Конец отчёта

Отчёт auCDtect Task manager&#58;

-----------------------
DON'T MODIFY THIS FILE
-----------------------
PERFORMER: auCDtect Task Manager, ver. 1.0.1 RC1 build 1.0.1.1
Copyright (c) 2008, 2009 y-soft. All rights reserved
http://y-soft.110mb.com
ANALYZER: auCDtect: CD records authenticity detector, version 0.8.2
Copyright (c) 2004 Oleg Berngardt. All rights reserved.
Copyright (c) 2004 Alexander Djourik. All rights reserved.
FILE: Modern Talking - Romantic Dreams.flac
  Size: 451626236 Hash: 91948CB9EA81FCB461528E07455A091C Accuracy: -m8
  Conclusion: CDDA 100%
  Signature: 929F890884F84946614CCF1A012970E02DB2DC58
-
Яндекс.Метрика
Рейтинг@Mail.ru