Chris Norman - Midnight Lady (1988) [FLAC|Lossless]<Pop Rock, Synth-pop, Ballad>

 

Создавать темы 17-Дек-2014 11:56

-Chris Norman - Midnight Lady (1988)- Год: 1988
Label: ©+® 1986-87, 1988 Hansa|BMG Ariola München GmbH. Made in GERMANY
Жанр: Pop Rock, Synth-pop, Ballad
Продолжительность: 01:03:50
Кодек: FLAC
Битрейт: Lossless
Трек лист:
01. Midnight Lady [04:09]
02. Hunters Of The Night [04:03]
03. Some Hearts Are Diamonds [03:42]
04. She Said She Was A Lucky Girl [03:15]
05. A Bridge At Midnight [04:34]
06. Sarah [04:40]
07. Wheels Of Fire [04:12]
08. No Arms Can Ever Hold You [03:43]
09. Ordinary Heart [0:03:54.24]
10. Love For Sale [03:25]
11. Chain Reaction [03:39]
12. Love Is [03:30]
13. Stop At Nothing [03:30]
14. Hands Tied [04:16]
15. Women In Love [04:27]
16. Here Comes The Night [04:46]

Отчёт ЕАС&#58;

Exact Audio Copy V1.0 beta 2 from 29. April 2011
EAC extraction logfile from 7. August 2011, 9:32
Chris Norman / Midnight Lady
Used drive  : ASUS    DRW-24B3ST   Adapter: 1  ID: 1
Read mode               : Secure
Utilize accurate stream : Yes
Defeat audio cache      : Yes
Make use of C2 pointers : No
Read offset correction                      : 6
Overread into Lead-In and Lead-Out          : No
Fill up missing offset samples with silence : Yes
Delete leading and trailing silent blocks   : No
Null samples used in CRC calculations       : Yes
Used interface                              : Native Win32 interface for Win NT & 2000
Used output format              : User Defined Encoder
Selected bitrate                : 1024 kBit/s
Quality                         : High
Add ID3 tag                     : No
Command line compressor         : C:\Program Files (x86)\Exact Audio Copy\Flac\flac.exe
Additional command line options : -8 -V -T "ARTIST=%artist%" -T "ALBUM=%albumtitle%" -T "DATE=%year%" -T "GENRE=%genre%" -T "COMMENT=ripped by DaRReL™" %source%
TOC of the extracted CD
     Track |   Start  |  Length  | Start sector | End sector
    ---------------------------------------------------------
        1  |  0:00.00 |  4:09.25 |         0    |    18699
        2  |  4:09.25 |  4:03.55 |     18700    |    36979
        3  |  8:13.05 |  3:42.30 |     36980    |    53659
        4  | 11:55.35 |  3:15.23 |     53660    |    68307
        5  | 15:10.58 |  4:34.12 |     68308    |    88869
        6  | 19:44.70 |  4:40.50 |     88870    |   109919
        7  | 24:25.45 |  4:12.05 |    109920    |   128824
        8  | 28:37.50 |  3:43.55 |    128825    |   145604
        9  | 32:21.30 |  3:54.18 |    145605    |   163172
       10  | 36:15.48 |  3:25.55 |    163173    |   178602
       11  | 39:41.28 |  3:39.12 |    178603    |   195039
       12  | 43:20.40 |  3:30.13 |    195040    |   210802
       13  | 46:50.53 |  3:30.00 |    210803    |   226552
       14  | 50:20.53 |  4:16.00 |    226553    |   245752
       15  | 54:36.53 |  4:27.25 |    245753    |   265802
       16  | 59:04.03 |  4:46.00 |    265803    |   287252
Range status and errors
Selected range
     Filename F:\Audio in lossless\$ Smokie $\Chris Norman - Midnight Lady (1988 Ariola, 297 072)\Chris Norman - Midnight Lady.wav
     Peak level 96.4 %
     Extraction speed 8.1 X
     Range quality 100.0 %
     Copy CRC 90D8F65B
     Copy OK
No errors occurred
AccurateRip summary
Track  1  accurately ripped (confidence 2)  [0ED05CFC]  (AR v2)
Track  2  accurately ripped (confidence 2)  [92F0F832]  (AR v2)
Track  3  accurately ripped (confidence 2)  [81DEB8D6]  (AR v2)
Track  4  accurately ripped (confidence 2)  [96195EB8]  (AR v2)
Track  5  accurately ripped (confidence 2)  [5C7B7FAE]  (AR v2)
Track  6  accurately ripped (confidence 2)  [DEA33140]  (AR v2)
Track  7  accurately ripped (confidence 2)  [DF2ED5DA]  (AR v2)
Track  8  accurately ripped (confidence 2)  [54A23B8E]  (AR v2)
Track  9  accurately ripped (confidence 2)  [37F95750]  (AR v2)
Track 10  accurately ripped (confidence 2)  [CAA82BC4]  (AR v2)
Track 11  accurately ripped (confidence 2)  [DAC9DB04]  (AR v2)
Track 12  accurately ripped (confidence 2)  [82EBA411]  (AR v2)
Track 13  accurately ripped (confidence 2)  [C549052C]  (AR v2)
Track 14  accurately ripped (confidence 2)  [4265543F]  (AR v2)
Track 15  accurately ripped (confidence 2)  [715F526C]  (AR v2)
Track 16  accurately ripped (confidence 2)  [9C18A4A2]  (AR v2)
All tracks accurately ripped
End of status report

Отчёт auCDtect Task manager&#58;

-----------------------
DON'T MODIFY THIS FILE
-----------------------
PERFORMER: auCDtect Task Manager, ver. 1.5.1RC4 build 1.5.1.5
Copyright (c) 2008-2010 y-soft. All rights reserved
http://y-soft.org
ANALYZER: auCDtect: CD records authenticity detector, version 0.8.2
Copyright (c) 2004 Oleg Berngardt. All rights reserved.
Copyright (c) 2004 Alexander Djourik. All rights reserved.
FILE: Chris Norman - Midnight Lady.flac
  Size: 413293670 Hash: AED7236A55F8A3422D14CC4224EDB98E Accuracy: -m0
  Conclusion: CDDA 100%
  Signature: AAAA5F6131F73972B63C298DD376C173D463CCA7
-

Создавать темы 15-Июл-2015 15:04 (спустя 6 месяцев 29 дней)

Спасибо!
Григоричъ
Яндекс.Метрика
Рейтинг@Mail.ru