V.A. - Totally 80`s (2CD) (1993) [FLAC|Lossless]<Pop Rock, Synth-pop>

 

Создавать темы 17-Дек-2014 11:56

-VA - Totally 80`s (2CD) (1993)- Год: 1993
Жанр: Pop Rock, Synth-pop
Лэйбл: Warner Special Products [OPCD-4544]
Аудио Кодек: FLAC
Аудио Битрейт: Lossless
Тип Рипа: Tracks+.cue
Продолжительность: 02:35:27-CD1 (01:18:00)
Треклист:
01. A-ha - Take On Me :: 03:50
02. Buster Poindexter And His Banshees Of Blue - Hot Hot Hot :: 03:50
03. Billy Ocean - Caribbean Queen (No More Love On The Run) :: 03:44
04. Bangles - Walk Like An Egyptian :: 03:25
05. Men At Work - Who Can It Be Now :: 03:23
06. Robert Palmer - Addicted To Love :: 03:57
07. Culture Club - Karma Chameleon :: 04:14
08. Pointer Sisters - Jump (For My Love) :: 04:00
09. Tone-Loc - Wild Thing :: 04:25
10. Wang Chung - Everybody Have Fun Tonight :: 04:17
11. Katrina And The Waves - Walking On Sunshine :: 04:00
12. Rick Springfield - Jessie's Girl :: 03:14
13. Glenn Frey - The Heat Is On :: 03:46
14. Escape Club - Wild Wild West :: 04:02
15. Belinda Carlisle - Heaven Is A Place On Earth :: 04:06
16. Donna Summer - She Works Hard For The Money :: 04:11
17. Naked Eyes - Always Something There To Remind Me :: 03:41
18. Kajagoogoo - Too Shy :: 03:41
19. John Waite - Missing You :: 04:04
20. Marvin Gaye - Sexual Healing :: 03:58

Отчёт EAC&#58;

Exact Audio Copy V0.99 prebeta 5 from 4. May 2009
EAC extraction logfile from 5. April 2010, 10:58
Various Artists / Totally '80S Disc 1
Used drive  : PBDS    DVD+-RW DS-8W1P   Adapter: 0  ID: 0
Read mode               : Secure
Utilize accurate stream : Yes
Defeat audio cache      : Yes
Make use of C2 pointers : No
Read offset correction                      : 6
Overread into Lead-In and Lead-Out          : No
Fill up missing offset samples with silence : Yes
Delete leading and trailing silent blocks   : No
Null samples used in CRC calculations       : No
Used interface                              : Native Win32 interface for Win NT & 2000
Gap handling                                : Appended to previous track
Used output format              : User Defined Encoder
Selected bitrate                : 1024 kBit/s
Quality                         : High
Add ID3 tag                     : No
Command line compressor         : C:\Program Files\Exact Audio Copy\Flac\flac.exe
Additional command line options : -V -8 -T "artist=%a" -T "title=%t" -T "album=%g" -T "date=%y" -T "tracknumber=%n" -T "genre=%m" %s
TOC of the extracted CD
     Track |   Start  |  Length  | Start sector | End sector
    ---------------------------------------------------------
        1  |  0:00.32 |  3:50.65 |        32    |    17346
        2  |  3:51.22 |  3:50.50 |     17347    |    34646
        3  |  7:41.72 |  3:44.10 |     34647    |    51456
        4  | 11:26.07 |  3:25.70 |     51457    |    66901
        5  | 14:52.02 |  3:23.30 |     66902    |    82156
        6  | 18:15.32 |  3:57.05 |     82157    |    99936
        7  | 22:12.37 |  4:14.70 |     99937    |   119056
        8  | 26:27.32 |  4:00.48 |    119057    |   137104
        9  | 30:28.05 |  4:25.60 |    137105    |   157039
       10  | 34:53.65 |  4:17.55 |    157040    |   176369
       11  | 39:11.45 |  4:00.60 |    176370    |   194429
       12  | 43:12.30 |  3:14.57 |    194430    |   209036
       13  | 46:27.12 |  3:46.73 |    209037    |   226059
       14  | 50:14.10 |  4:02.02 |    226060    |   244211
       15  | 54:16.12 |  4:06.38 |    244212    |   262699
       16  | 58:22.50 |  4:11.50 |    262700    |   281574
       17  | 62:34.25 |  3:41.42 |    281575    |   298191
       18  | 66:15.67 |  3:41.63 |    298192    |   314829
       19  | 69:57.55 |  4:04.52 |    314830    |   333181
       20  | 74:02.32 |  3:58.50 |    333182    |   351081
Track  1
     Filename E:\Various 1993 Totally 80's [FLAC 8]\Disc1\01-Take_On_Me.wav
     Pre-gap length  0:00:02.32
     Peak level 87.0 %
     Track quality 100.0 %
     Test CRC E4B7C02B
     Copy CRC E4B7C02B
     Copy OK
Track  2
     Filename E:\Various 1993 Totally 80's [FLAC 8]\Disc1\02-Hot_Hot_Hot.wav
     Peak level 99.4 %
     Track quality 100.0 %
     Test CRC 53B55B78
     Copy CRC 53B55B78
     Copy OK
Track  3
     Filename E:\Various 1993 Totally 80's [FLAC 8]\Disc1\03-Caribbean_Queen_(No_More_Love_On_The_Run).wav
     Peak level 70.4 %
     Track quality 99.9 %
     Test CRC D58AC669
     Copy CRC D58AC669
     Copy OK
Track  4
     Filename E:\Various 1993 Totally 80's [FLAC 8]\Disc1\04-Walk_Like_An_Egyptian.wav
     Peak level 95.3 %
     Track quality 100.0 %
     Test CRC 7ED4E2CA
     Copy CRC 7ED4E2CA
     Copy OK
Track  5
     Filename E:\Various 1993 Totally 80's [FLAC 8]\Disc1\05-Who_Can_It_Be_Now.wav
     Peak level 95.1 %
     Track quality 100.0 %
     Test CRC 096524E5
     Copy CRC 096524E5
     Copy OK
Track  6
     Filename E:\Various 1993 Totally 80's [FLAC 8]\Disc1\06-Addicted_To_Love.wav
     Peak level 95.0 %
     Track quality 100.0 %
     Test CRC 1AC70A17
     Copy CRC 1AC70A17
     Copy OK
Track  7
     Filename E:\Various 1993 Totally 80's [FLAC 8]\Disc1\07-Karma_Chameleon.wav
     Peak level 91.5 %
     Track quality 100.0 %
     Test CRC C2A8F443
     Copy CRC C2A8F443
     Copy OK
Track  8
     Filename E:\Various 1993 Totally 80's [FLAC 8]\Disc1\08-Jump_(For_My_Love).wav
     Peak level 100.0 %
     Track quality 100.0 %
     Test CRC 85BB26D1
     Copy CRC 85BB26D1
     Copy OK
Track  9
     Filename E:\Various 1993 Totally 80's [FLAC 8]\Disc1\09-Wild_Thing.wav
     Peak level 80.5 %
     Track quality 100.0 %
     Test CRC 60156FB6
     Copy CRC 60156FB6
     Copy OK
Track 10
     Filename E:\Various 1993 Totally 80's [FLAC 8]\Disc1\10-Everybody_Have_Fun_Tonight.wav
     Peak level 85.5 %
     Track quality 100.0 %
     Test CRC 04A734ED
     Copy CRC 04A734ED
     Copy OK
Track 11
     Filename E:\Various 1993 Totally 80's [FLAC 8]\Disc1\11-Walking_On_Sunshine.wav
     Peak level 70.1 %
     Track quality 100.0 %
     Test CRC F7ADCA32
     Copy CRC F7ADCA32
     Copy OK
Track 12
     Filename E:\Various 1993 Totally 80's [FLAC 8]\Disc1\12-Jessie's_Girl.wav
     Peak level 82.0 %
     Track quality 100.0 %
     Test CRC B0DA620B
     Copy CRC B0DA620B
     Copy OK
Track 13
     Filename E:\Various 1993 Totally 80's [FLAC 8]\Disc1\13-The_Heat_Is_On.wav
     Peak level 100.0 %
     Track quality 100.0 %
     Test CRC C629679E
     Copy CRC C629679E
     Copy OK
Track 14
     Filename E:\Various 1993 Totally 80's [FLAC 8]\Disc1\14-Wild_Wild_West.wav
     Peak level 89.3 %
     Track quality 100.0 %
     Test CRC FFDD7B89
     Copy CRC FFDD7B89
     Copy OK
Track 15
     Filename E:\Various 1993 Totally 80's [FLAC 8]\Disc1\15-Heaven_Is_A_Place_On_Earth.wav
     Peak level 73.7 %
     Track quality 100.0 %
     Test CRC CF0528B3
     Copy CRC CF0528B3
     Copy OK
Track 16
     Filename E:\Various 1993 Totally 80's [FLAC 8]\Disc1\16-She_Works_Hard_For_The_Money.wav
     Peak level 89.1 %
     Track quality 99.9 %
     Test CRC 1BE8CE68
     Copy CRC 1BE8CE68
     Copy OK
Track 17
     Filename E:\Various 1993 Totally 80's [FLAC 8]\Disc1\17-Always_Something_There_To_Remind_Me.wav
     Peak level 80.2 %
     Track quality 100.0 %
     Test CRC FEC179F7
     Copy CRC FEC179F7
     Copy OK
Track 18
     Filename E:\Various 1993 Totally 80's [FLAC 8]\Disc1\18-Too_Shy.wav
     Peak level 87.0 %
     Track quality 99.9 %
     Test CRC AD6B3902
     Copy CRC AD6B3902
     Copy OK
Track 19
     Filename E:\Various 1993 Totally 80's [FLAC 8]\Disc1\19-Missing_You.wav
     Peak level 63.0 %
     Track quality 99.9 %
     Test CRC 846B5CA8
     Copy CRC 846B5CA8
     Copy OK
Track 20
     Filename E:\Various 1993 Totally 80's [FLAC 8]\Disc1\20-Sexual_Healing.wav
     Peak level 77.3 %
     Track quality 100.0 %
     Test CRC 916561D7
     Copy CRC 916561D7
     Copy OK
No errors occurred
End of status report

Отчёт auCDtect&#58;

-----------------------
DON'T MODIFY THIS FILE
-----------------------
PERFORMER: auCDtect Task Manager, ver. 1.5.1RC6 build 1.5.1.7
Copyright (c) 2008-2010 y-soft. All rights reserved
http://y-soft.org
ANALYZER: auCDtect: CD records authenticity detector, version 0.8.2
Copyright (c) 2004 Oleg Berngardt. All rights reserved.
Copyright (c) 2004 Alexander Djourik. All rights reserved.
FILE: 20. Marvin Gaye - Sexual Healing.flac
  Size: 25055133 Hash: E11C875B6BFD003398E671E0A4AFAEEF Accuracy: -m0
  Conclusion: CDDA 100%
  Signature: 8B34DA357B136BBEDEE68A5D990FBFE680B6A23D
FILE: 19. John Waite - Missing You.flac
  Size: 26753863 Hash: 2BB284B50D9E07D4A4313A40981261B5 Accuracy: -m0
  Conclusion: CDDA 100%
  Signature: B60DA316C3F836D5DD32988D0E2D0E570B66C81C
FILE: 18. Kajagoogoo - Too Shy.flac
  Size: 25045392 Hash: 68E01E190E7056BC0C89F55C73C7019F Accuracy: -m0
  Conclusion: CDDA 100%
  Signature: 47C014572F91CEC16476E662B30DD1B4DAC54F27
FILE: 17. Naked Eyes - Always Something There To Remind Me.flac
  Size: 25762759 Hash: 9FA08CCB6C5FB51F6A80F1ACB99621B4 Accuracy: -m0
  Conclusion: CDDA 100%
  Signature: 987890CAC66EAADC606B439B1853D3358CF4FD32
FILE: 16. Donna Summer - She Works Hard For The Money.flac
  Size: 28209930 Hash: C1567B9B01CA7292CA90C852FB576F06 Accuracy: -m0
  Conclusion: CDDA 100%
  Signature: CBDB245F1683E9556A5CA464DCF20389815BDF9B
FILE: 15. Belinda Carlisle - Heaven Is A Place On Earth.flac
  Size: 29394048 Hash: D66F72DEC13874A3ABF351C9DFB2089F Accuracy: -m0
  Conclusion: CDDA 100%
  Signature: AD88EE8918D2479C2A3582BA095FD704373D95D7
FILE: 14. Escape Club - Wild Wild West.flac
  Size: 28448618 Hash: DEE7C9693FA42315D1E98F04622D722E Accuracy: -m0
  Conclusion: CDDA 100%
  Signature: D8C1E49D568BD02C83B5B9070B98CFE4DDAA0E9C
FILE: 13. Glenn Frey - The Heat Is On.flac
  Size: 27629242 Hash: B61807819A2D8E4461220037F0ADD361 Accuracy: -m0
  Conclusion: CDDA 100%
  Signature: FC265B12B55BE83CA975061E10C3574AE6B75791
FILE: 12. Rick Springfield - Jessie's Girl.flac
  Size: 22606915 Hash: 764D57A6CCB96980134D733354867385 Accuracy: -m0
  Conclusion: CDDA 99%
  Signature: BDFBC0E8141EF6EEE3448C718DEFE91C9A206871
FILE: 11. Katrina And The Waves - Walking On Sunshine.flac
  Size: 29949932 Hash: CB320B86E2B6D6493A4CFCDB6222ECEE Accuracy: -m0
  Conclusion: CDDA 100%
  Signature: CDE0A2630FF1B2610D576BCE3AE6ED414807EBA1
FILE: 10. Wang Chung - Everybody Have Fun Tonight.flac
  Size: 31857756 Hash: FC780D412AFE80AB0EEBAE561DE9C93D Accuracy: -m0
  Conclusion: CDDA 100%
  Signature: CCBC260AA52D73ECCCF44AAA0B591AEE0966F8F6
FILE: 09. Tone-Loc - Wild Thing.flac
  Size: 29523540 Hash: 901653D190DB75B4DC240C92E663CB4B Accuracy: -m0
  Conclusion: CDDA 100%
  Signature: A0D179265DBAAAB04B25DC9F70BE1B55CF04AA49
FILE: 08. Pointer Sisters - Jump (For My Love).flac
  Size: 26995279 Hash: E93E2032D0EF52CF0488A9E2EFCD333E Accuracy: -m0
  Conclusion: CDDA 99%
  Signature: 0F94D2631D6F548B2D5D6B5E74D1D7E5E09D896A
FILE: 07. Culture Club - Karma Chameleon.flac
  Size: 31229854 Hash: 7EA297E53A6DAF62EDD61910106DB2DB Accuracy: -m0
  Conclusion: MPEG 95%
  Signature: EFE234CF0322B013ECE8A19A61BE44B82A645D9C
FILE: 06. Robert Palmer - Addicted To Love.flac
  Size: 26966223 Hash: 18DD8F8DB182EE5C8CEE395D2854BB7C Accuracy: -m0
  Conclusion: CDDA 100%
  Signature: 140CE2FB4597762742F550588967D4A46A0A5E7C
FILE: 05. Men At Work - Who Can It Be Now.flac
  Size: 23231267 Hash: D9039AD5017CE48078AF69DBB2B1E38D Accuracy: -m0
  Conclusion: CDDA 100%
  Signature: 2FE436D0C515308AD12DCA9A3FB7EFDCA4BA0F70
FILE: 04. Bangles - Walk Like An Egyptian.flac
  Size: 23599311 Hash: 641F05107F847D37BC8360DCC36D730A Accuracy: -m0
  Conclusion: CDDA 100%
  Signature: F4A5517036D3A8123D5CC6A059822776EA0BB504
FILE: 03. Billy Ocean - Caribbean Queen (No More Love On The Run).flac
  Size: 23863954 Hash: 970B3D74C0CC8CC7085659EA9EAD3333 Accuracy: -m0
  Conclusion: CDDA 100%
  Signature: 4F9A4FEC246327E78B01521481DA66F222F4DDF6
FILE: 02. Buster Poindexter And His Banshees Of Blue - Hot Hot Hot.flac
  Size: 27477999 Hash: C62D8DA29EFFCC778B5DBFAFCA9F66D3 Accuracy: -m0
  Conclusion: CDDA 100%
  Signature: 2A321971C753C771FC66F3420FA0E319E0892FA0
FILE: 01. A-ha - Take On Me.flac
  Size: 26383834 Hash: 9295D43C5CC3D8986DF3424978389F2E Accuracy: -m0
  Conclusion: MPEG 95%
  Signature: 91695B06F1B3D5D0B87A47F3E049BAF72ED06E78
-CD2 (01:17:22)
Треклист:
01. Romantics - What I Like About You :: 02:58
02. J. Geils Band - Centerfold :: 03:39
03. Thomas Dolby - She Blinded Me With Science :: 03:42
04. Stray Cats - Rock This Town :: 03:26
05. Eddy Grant - Electric Avenue :: 03:51
06. Nena - 99 Luftballons :: 03:55
07. Foreigner - Waiting For A Girl Like You :: 04:35
08. Laura Branigan - Gloria :: 03:52
09. Tears For Fears - Everybody Wants To Rule The World :: 04:14
10. Cutting Crew - (I Just) Died In Your Arms :: 04:37
11. Tommy Tutone - 867-5309 Jenny :: 03:46
12. Ray Parker Jr. - Ghostbusters :: 04:06
13. Sheena Easton - Morning Train (Nine To Five) :: 03:21
14. Debbie Gibson - Only In My Dreams :: 03:55
15. Corey Hart - Sunglasses At Night :: 03:57
16. Mike And The Mechanics - All I Need Is A Miracle :: 03:43
17. John Parr - St. Elmo's Fire (Man In Motion) :: 04:11
18. Juice Newton - Queen Of Hearts :: 03:26
19. Mr. Mister - Broken Wings :: 04:39
20. REO Speedwagon - Keep On Loving You :: 03:20

Отчёт EAC&#58;

Exact Audio Copy V0.99 prebeta 5 from 4. May 2009
EAC extraction logfile from 5. April 2010, 17:18
Various Artists / Totally '80S Disc 2
Used drive  : PBDS    DVD+-RW DS-8W1P   Adapter: 0  ID: 0
Read mode               : Secure
Utilize accurate stream : Yes
Defeat audio cache      : Yes
Make use of C2 pointers : No
Read offset correction                      : 6
Overread into Lead-In and Lead-Out          : No
Fill up missing offset samples with silence : Yes
Delete leading and trailing silent blocks   : No
Null samples used in CRC calculations       : No
Used interface                              : Native Win32 interface for Win NT & 2000
Gap handling                                : Appended to previous track
Used output format              : User Defined Encoder
Selected bitrate                : 1024 kBit/s
Quality                         : High
Add ID3 tag                     : No
Command line compressor         : C:\Program Files\Exact Audio Copy\Flac\flac.exe
Additional command line options : -V -8 -T "artist=%a" -T "title=%t" -T "album=%g" -T "date=%y" -T "tracknumber=%n" -T "genre=%m" %s
TOC of the extracted CD
     Track |   Start  |  Length  | Start sector | End sector
    ---------------------------------------------------------
        1  |  0:00.32 |  2:58.10 |        32    |    13391
        2  |  2:58.42 |  3:39.13 |     13392    |    29829
        3  |  6:37.55 |  3:42.47 |     29830    |    46526
        4  | 10:20.27 |  3:26.35 |     46527    |    62011
        5  | 13:46.62 |  3:51.10 |     62012    |    79346
        6  | 17:37.72 |  3:55.00 |     79347    |    96971
        7  | 21:32.72 |  4:35.05 |     96972    |   117601
        8  | 26:08.02 |  3:52.70 |    117602    |   135071
        9  | 30:00.72 |  4:14.55 |    135072    |   154176
       10  | 34:15.52 |  4:37.43 |    154177    |   174994
       11  | 38:53.20 |  3:46.50 |    174995    |   191994
       12  | 42:39.70 |  4:06.60 |    191995    |   210504
       13  | 46:46.55 |  3:21.35 |    210505    |   225614
       14  | 50:08.15 |  3:55.57 |    225615    |   243296
       15  | 54:03.72 |  3:57.13 |    243297    |   261084
       16  | 58:01.10 |  3:43.57 |    261085    |   277866
       17  | 61:44.67 |  4:11.60 |    277867    |   296751
       18  | 65:56.52 |  3:26.48 |    296752    |   312249
       19  | 69:23.25 |  4:39.37 |    312250    |   333211
       20  | 74:02.62 |  3:20.05 |    333212    |   348216
Track  1
     Filename E:\Various 1993 Totally 80's [FLAC 8]\Disc2\01-What_I_Like_About_You.wav
     Pre-gap length  0:00:02.32
     Peak level 99.1 %
     Track quality 100.0 %
     Test CRC B3C37E5C
     Copy CRC B3C37E5C
     Copy OK
Track  2
     Filename E:\Various 1993 Totally 80's [FLAC 8]\Disc2\02-Centerfold.wav
     Peak level 100.0 %
     Track quality 99.9 %
     Test CRC DB262040
     Copy CRC DB262040
     Copy OK
Track  3
     Filename E:\Various 1993 Totally 80's [FLAC 8]\Disc2\03-She_Blinded_Me_With_Science.wav
     Peak level 87.0 %
     Track quality 100.0 %
     Test CRC 0523C67C
     Copy CRC 0523C67C
     Copy OK
Track  4
     Filename E:\Various 1993 Totally 80's [FLAC 8]\Disc2\04-Rock_This_Town.wav
     Peak level 95.6 %
     Track quality 100.0 %
     Test CRC 92AD8C10
     Copy CRC 92AD8C10
     Copy OK
Track  5
     Filename E:\Various 1993 Totally 80's [FLAC 8]\Disc2\05-Electric_Avenue.wav
     Peak level 74.4 %
     Track quality 100.0 %
     Test CRC 581761D3
     Copy CRC 581761D3
     Copy OK
Track  6
     Filename E:\Various 1993 Totally 80's [FLAC 8]\Disc2\06-99_Luftballons.wav
     Peak level 76.9 %
     Track quality 100.0 %
     Test CRC EF216E06
     Copy CRC EF216E06
     Copy OK
Track  7
     Filename E:\Various 1993 Totally 80's [FLAC 8]\Disc2\07-Waiting_For_A_Girl_Like_You.wav
     Peak level 73.8 %
     Track quality 100.0 %
     Test CRC 963630ED
     Copy CRC 963630ED
     Copy OK
Track  8
     Filename E:\Various 1993 Totally 80's [FLAC 8]\Disc2\08-Gloria.wav
     Peak level 92.9 %
     Track quality 100.0 %
     Test CRC F9D3393D
     Copy CRC F9D3393D
     Copy OK
Track  9
     Filename E:\Various 1993 Totally 80's [FLAC 8]\Disc2\09-Everybody_Wants_To_Rule_The_World.wav
     Peak level 75.7 %
     Track quality 100.0 %
     Test CRC 7C0A06D4
     Copy CRC 7C0A06D4
     Copy OK
Track 10
     Filename E:\Various 1993 Totally 80's [FLAC 8]\Disc2\10-(I_Just)_Died_In_Your_Arms.wav
     Peak level 98.6 %
     Track quality 100.0 %
     Test CRC C32B2C5C
     Copy CRC C32B2C5C
     Copy OK
Track 11
     Filename E:\Various 1993 Totally 80's [FLAC 8]\Disc2\11-867-5309_Jenny.wav
     Peak level 78.5 %
     Track quality 100.0 %
     Test CRC 7B883FFE
     Copy CRC 7B883FFE
     Copy OK
Track 12
     Filename E:\Various 1993 Totally 80's [FLAC 8]\Disc2\12-Ghostbusters.wav
     Peak level 79.4 %
     Track quality 100.0 %
     Test CRC F3D70435
     Copy CRC F3D70435
     Copy OK
Track 13
     Filename E:\Various 1993 Totally 80's [FLAC 8]\Disc2\13-Morning_Train_(Nine_To_Five).wav
     Peak level 91.3 %
     Track quality 100.0 %
     Test CRC 26533570
     Copy CRC 26533570
     Copy OK
Track 14
     Filename E:\Various 1993 Totally 80's [FLAC 8]\Disc2\14-Only_In_My_Dreams.wav
     Peak level 93.6 %
     Track quality 99.9 %
     Test CRC 0DA30E9A
     Copy CRC 0DA30E9A
     Copy OK
Track 15
     Filename E:\Various 1993 Totally 80's [FLAC 8]\Disc2\15-Sunglasses_At_Night.wav
     Peak level 81.4 %
     Track quality 99.9 %
     Test CRC 021767B6
     Copy CRC 021767B6
     Copy OK
Track 16
     Filename E:\Various 1993 Totally 80's [FLAC 8]\Disc2\16-All_I_Need_Is_A_Miracle.wav
     Peak level 84.6 %
     Track quality 100.0 %
     Test CRC A939F18F
     Copy CRC A939F18F
     Copy OK
Track 17
     Filename E:\Various 1993 Totally 80's [FLAC 8]\Disc2\17-St._Elmo's_Fire_(Man_In_Motion).wav
     Peak level 74.9 %
     Track quality 100.0 %
     Test CRC D8493D5B
     Copy CRC D8493D5B
     Copy OK
Track 18
     Filename E:\Various 1993 Totally 80's [FLAC 8]\Disc2\18-Queen_Of_Hearts.wav
     Peak level 78.6 %
     Track quality 100.0 %
     Test CRC 49B382EE
     Copy CRC 49B382EE
     Copy OK
Track 19
     Filename E:\Various 1993 Totally 80's [FLAC 8]\Disc2\19-Broken_Wings.wav
     Peak level 67.1 %
     Track quality 100.0 %
     Test CRC 5A09AE1A
     Copy CRC 5A09AE1A
     Copy OK
Track 20
     Filename E:\Various 1993 Totally 80's [FLAC 8]\Disc2\20-Keep_On_Loving_You.wav
     Peak level 85.1 %
     Track quality 100.0 %
     Test CRC 07A13395
     Copy CRC 07A13395
     Copy OK
No errors occurred
End of status report

Отчёт auCDtect&#58;

-----------------------
DON'T MODIFY THIS FILE
-----------------------
PERFORMER: auCDtect Task Manager, ver. 1.5.1RC6 build 1.5.1.7
Copyright (c) 2008-2010 y-soft. All rights reserved
http://y-soft.org
ANALYZER: auCDtect: CD records authenticity detector, version 0.8.2
Copyright (c) 2004 Oleg Berngardt. All rights reserved.
Copyright (c) 2004 Alexander Djourik. All rights reserved.
FILE: 20. REO Speedwagon - Keep On Loving You.flac
  Size: 23818506 Hash: 02DA53FBFAC18D01EEB4B9B101600FCD Accuracy: -m0
  Conclusion: MPEG 95%
  Signature: 925ACA7CC38C754C15B951E974E6EC4AF7BC15AB
FILE: 19. Mr. Mister - Broken Wings.flac
  Size: 33149745 Hash: 991E814C947FF5EFC679E9A67C87229D Accuracy: -m0
  Conclusion: CDDA 100%
  Signature: 4BFCEF4FA0190467435257F0BEF346221B7F3549
FILE: 18. Juice Newton - Queen Of Hearts.flac
  Size: 22627283 Hash: 193144608DD6E9B3FE8B154EC54C1EA0 Accuracy: -m0
  Conclusion: CDDA 100%
  Signature: 634ED0AC54C118EEC6BDDD3D3AC979D425071E06
FILE: 17. John Parr - St. Elmo's Fire (Man In Motion).flac
  Size: 28451173 Hash: E7438AFF76F76E6E021F8D259DD77BB3 Accuracy: -m0
  Conclusion: MPEG 99%
  Signature: FEC3A7E69A2D6FA72DC48557FA162C8F5F722B40
FILE: 16. Mike And The Mechanics - All I Need Is A Miracle.flac
  Size: 24586119 Hash: 0C584B8031F835CE32F2B5F9ADAABB6A Accuracy: -m0
  Conclusion: MPEG 100%
  Signature: 75FDC7B9540CBD2366AC9EE1F221BD26DAFAB77E
FILE: 15. Corey Hart - Sunglasses At Night.flac
  Size: 24831311 Hash: 1AC99CFE6D55602C8A5A2D9814DDA7A8 Accuracy: -m0
  Conclusion: CDDA 100%
  Signature: 05A68A31B8245D4E24892AC4573355B9DDB9921D
FILE: 14. Debbie Gibson - Only In My Dreams.flac
  Size: 28366034 Hash: 0DDB803C2871302AA4DE122DEB8E6CA5 Accuracy: -m0
  Conclusion: CDDA 100%
  Signature: B379E3501C6DDF8ACEF5676EB637B91B9A08311A
FILE: 13. Sheena Easton - Morning Train (Nine To Five).flac
  Size: 23397432 Hash: 313ABE140F4DC60992FE5B68928F1EC3 Accuracy: -m0
  Conclusion: CDDA 100%
  Signature: D01F905282AA71E5DFEA3E13955833E93FC97152
FILE: 12. Ray Parker Jr. - Ghostbusters.flac
  Size: 28316605 Hash: 33A5D562F2F7F734E3205B2B8E359EFB Accuracy: -m0
  Conclusion: CDDA 100%
  Signature: CA41F8D273B187BC365B2B1BE6445342D48F6269
FILE: 11. Tommy Tutone - 867-5309 Jenny.flac
  Size: 24447085 Hash: 5992DC87039E916A354FB21D031DC221 Accuracy: -m0
  Conclusion: CDDA 99%
  Signature: A5BA74FE91CB3ED7CEE2DBE106C35C172B3F2BB2
FILE: 10. Cutting Crew - (I Just) Died In Your Arms.flac
  Size: 30628671 Hash: 95FD35D5C2CFC2EB5E37F109EF46FE9E Accuracy: -m0
  Conclusion: MPEG 95%
  Signature: A68EB505E7F215A9DE8BD6D134E1E248F594EC70
FILE: 09. Tears For Fears - Everybody Wants To Rule The World.flac
  Size: 26717600 Hash: 05FB9DD8E4B527DB743E2C0CA1F7B2A7 Accuracy: -m0
  Conclusion: CDDA 42%
  Signature: 18A3A56F2E49DE8E2A46659D6A4C4AA7D49EBB9B
FILE: 08. Laura Branigan - Gloria.flac
  Size: 25310283 Hash: 0609FA0C5336AF750270F46306CB9B38 Accuracy: -m0
  Conclusion: CDDA 100%
  Signature: BA2045701032C9BADCB77668A488F2A67C584F77
FILE: 07. Foreigner - Waiting For A Girl Like You.flac
  Size: 27647649 Hash: 5E5EF7A8CF68E777AA4D7BC348F1F1D6 Accuracy: -m0
  Conclusion: CDDA 100%
  Signature: 09C5F98042C14F1A457F9A5A8054D7B399EE703D
FILE: 06. Nena - 99 Luftballons.flac
  Size: 24673890 Hash: F82CDEA03677C6879AA2C46426E1457F Accuracy: -m0
  Conclusion: CDDA 100%
  Signature: 2F986BE1E553F25ADDBD7676DEA87D7D78E98039
FILE: 05. Eddy Grant - Electric Avenue.flac
  Size: 23388146 Hash: 6A9F2852924843A528A7C892175DFF1C Accuracy: -m0
  Conclusion: CDDA 100%
  Signature: D7CB6E8EAF6FA4B528A40C002DFF9204E6C806CE
FILE: 04. Stray Cats - Rock This Town.flac
  Size: 23136562 Hash: FE87A3FCE7F399FFF7F3B25133311E19 Accuracy: -m0
  Conclusion: CDDA 100%
  Signature: 030720FD168AB6F2A632786C2F5BC1DC879A0538
FILE: 03. Thomas Dolby - She Blinded Me With Science.flac
  Size: 23260354 Hash: 8D51071A5E093E79D797C5D2B0A7958D Accuracy: -m0
  Conclusion: CDDA 100%
  Signature: E6F5E5D5243C2737B7AC947C2DFF538B5DC62E4F
FILE: 02. J. Geils Band - Centerfold.flac
  Size: 25078481 Hash: B95D51722D7D008EF5DDD7B08684A3F1 Accuracy: -m0
  Conclusion: CDDA 100%
  Signature: 57A359BAEB51847E3802252EC25CEC1A71088ECD
FILE: 01. Romantics - What I Like About You.flac
  Size: 22311540 Hash: 3AB03FFF2C51A574E796AB9C649D6B77 Accuracy: -m0
  Conclusion: CDDA 100%
  Signature: 8DC1F09FDB1E36AEC8F0D20D75FEC1DA7ACACD8B
-

Создавать темы 31-Июл-2015 20:41 (спустя 7 месяцев 14 дней)

Please seed.......
Яндекс.Метрика
Рейтинг@Mail.ru