Video Kids - The Invasion Of The Spacepeckers (Original Album+Bonus Tracks, 2009) (1984) [APE|Lossless]<Pop>

 

Создавать темы 17-Дек-2014 11:56

-Video Kids - The Invasion Of The Spacepeckers (Original Album+Bonus Tracks)- Год: 1984/2009
Издание:Break Records, LPCD 841023, Germany
Страна: Netherlands
Жанр: Pop
Продолжительность: 01:19:56
Кодек: APE
Тип рипа: Image+.cue
Битрейт: Lossless
Тип битрейта: CBR
Трек лист:
01. Do The Rap :: 3:34
02. Cartooney Tunes (Incl.Happy Birthday) :: 4:24
03. La Bamba :: 4:14
04. I'm A Rock And Rollpecker :: 2:28
05. Communication Outer Space :: 3:09
06. Woodpeckers From Space :: 5:56
07. Give Me That Banana :: 4:07
08. Do You Like Surfing ? :: 3:21
09. Sky Rider :: 3:15
BonusTracks:
10. Woodpeckers From Space (1984 12 Version) :: 5:55
11. Rap And Sing Along (1984 12 Version B-side) :: 6:28
12. Do The Rap (1985 12 Version) :: 6:24
13. Happy Birthday / Sky Rider (1985 B-side) :: 3:52
14. Woodpeckers From Space (1986 7 Version) :: 3:47
15. Woodpeckers From Space (1986 12 Version) :: 5:55
16. Woodpeckers From Space (1989 Video 'House' Kids Version) :: 3:56
17. Woodpeckers From Space (1994 Radio Version) :: 3:51
18. Woodpeckers From Space (1994 Extended Version) :: 5:19

Отчёт ЕАС&#58;

Exact Audio Copy V0.99 prebeta 5 from 4. May 2009
Отчёт EAC об извлечении, выполненном 6. января 2011, 21:08
Unknown Artist / Unknown Title
Дисковод: ATAPI   DVD A  DH16A3S   Adapter: 2  ID: 1
Режим чтения                 : Достоверность
Использование точного потока : Да
Отключение кэша аудио        : Нет
Использование указателей C2  : Нет
Коррекция смещения при чтении                     : 6
Способность читать области Lead-in и Lead-out     : Нет
Заполнение пропущенных сэмплов тишиной            : Да
Удаление блоков с тишиной в начале и конце        : Нет
При вычислениях CRC использовались нулевые сэмплы : Нет
Интерфейс                                         : Встроенный Win32-интерфейс для Win NT/2000
Выходной формат : Внутренние WAV-операции
Формат сэмплов  : 44.100 Гц; 16 бит; стерео
TOC извлечённого CD
     Трек |   Старт  | Длительность | Начальный сектор | Конечный сектор
    ---------------------------------------------------------------------
       1  |  0:00.00 |    3:34.20   |           0      |      16069
       2  |  3:34.20 |    4:23.51   |       16070      |      35845
       3  |  7:57.71 |    4:13.46   |       35846      |      54866
       4  | 12:11.42 |    2:27.73   |       54867      |      65964
       5  | 14:39.40 |    3:09.00   |       65965      |      80139
       6  | 17:48.40 |    5:56.00   |       80140      |     106839
       7  | 23:44.40 |    4:06.74   |      106840      |     125363
       8  | 27:51.39 |    3:20.57   |      125364      |     140420
       9  | 31:12.21 |    3:15.29   |      140421      |     155074
      10  | 34:27.50 |    5:55.37   |      155075      |     181736
      11  | 40:23.12 |    6:27.57   |      181737      |     210818
      12  | 46:50.69 |    6:24.08   |      210819      |     239626
      13  | 53:15.02 |    3:51.56   |      239627      |     257007
      14  | 57:06.58 |    3:47.14   |      257008      |     274046
      15  | 60:53.72 |    5:55.00   |      274047      |     300671
      16  | 66:48.72 |    3:56.29   |      300672      |     318400
      17  | 70:45.26 |    3:51.37   |      318401      |     335762
      18  | 74:36.63 |    5:19.34   |      335763      |     359721
Характеристики диапазона извлечения и сообщения об ошибках
Выбранный диапазон
     Имя файла C:\Users\Стас\Music\Video Kids\Video Kids - The Invasion Of The Spacepeckers.wav
     Пиковый уровень 98.9 %
     Качество диапазона 100.0 %
     CRC копии 419ACBAB
     Копирование... OK
Ошибок не произошло
AccurateRip: сводка
Трек  1  точное извлечение (доверие 1)  [FD88DBF8]
Трек  2  точное извлечение (доверие 1)  [191F1CDB]
Трек  3  точное извлечение (доверие 1)  [32A5B51B]
Трек  4  точное извлечение (доверие 1)  [1B1C3CA0]
Трек  5  точное извлечение (доверие 1)  [8D8F5A71]
Трек  6  точное извлечение (доверие 1)  [1AF00A5C]
Трек  7  точное извлечение (доверие 1)  [DEE8E234]
Трек  8  точное извлечение (доверие 1)  [3C27DA3B]
Трек  9  точное извлечение (доверие 1)  [5EB29138]
Трек 10  точное извлечение (доверие 1)  [5441EEC4]
Трек 11  точное извлечение (доверие 1)  [01A66841]
Трек 12  точное извлечение (доверие 1)  [03C086BB]
Трек 13  точное извлечение (доверие 1)  [325725E3]
Трек 14  точное извлечение (доверие 1)  [57164F6C]
Трек 15  точное извлечение (доверие 1)  [7308E575]
Трек 16  точное извлечение (доверие 1)  [C983CF29]
Трек 17  точное извлечение (доверие 1)  [BA179F83]
Трек 18  точное извлечение (доверие 1)  [1BB69A17]
Все треки извлечены точно
Конец отчёта

Отчёт auCDtect&#58;

-----------------------
DON'T MODIFY THIS FILE
-----------------------
PERFORMER: auCDtect Task Manager, ver. 1.5.1RC4 build 1.5.1.5
Copyright (c) 2008-2010 y-soft. All rights reserved
http://y-soft.org
ANALYZER: auCDtect: CD records authenticity detector, version 0.8.2
Copyright (c) 2004 Oleg Berngardt. All rights reserved.
Copyright (c) 2004 Alexander Djourik. All rights reserved.
FILE: Video Kids - The Invasion Of The Spacepeckers.ape
  Size: 555570108 Hash: 212F7C802171F5A47D8F54D60A60A1FA Accuracy: -m0
  Conclusion: CDDA 100%
  Signature: 8F0E61080082F4CE1BC2F28F6E1026EF6BA96DC9
-
Яндекс.Метрика
Рейтинг@Mail.ru