[ Сегодня на трекере фрилич! Идет свободное скачивание без начисления Download ]

Propaganda - Outside World (2002) [FLAC|Lossless]<Synthpop/Electronic>

 

Создавать темы 17-Дек-2014 11:56

-Propaganda - Outside World (2002)- Год: 2002
Жанр: Synthpop/Electronic
Продолжительность: 01:17:49
Формат: FLAC (image + .cue)
Битрейт: Lossless
Трек лист:
1. Das Testament des Dr Mabuse (13th Life Mix)
2. Lied
3. P.Machinery (Beta Mix)
4. Duel (Bitter Sweet)
5. The Lesson
6. Frozen Faces (12'' Version)
7. Jewel
8. Complete Machinery
9. Das Testament des Dr Mabuse (DJ Promo version)
10. Femme Fatale (The Woman With The Orchid)
11. Echo Of Frozen Faces

Биография&#58;

Синт-поп группа Propaganda была сформирована в Германии вокалисткой Клаудией Брюкен (Claudia Bruecken) и ударником Майклом Мертенс (Michael Mertens), к ним присоединились клавишники Сюзанна Фрейтаг (Susanne Freytag) and Ральф Дорпер (Ralf Dorper). Квартет переехал в Англию в 1983 и подписал контракт с лейблом ZTT Records, бывшем также домом таких известных групп как Frankie Goes to Hollywood и Art Of Noise. Первым их синглом стала композиция "Dr. Mabuse", попавшая в британский Top 30 в начале 1984, но следующий релиз команды вышел больше чем через год. В мае 1985 второй сингл "Duel" смог побить успех предыдущего, достигнув 21 места в чартах.
Первый альбом A Secret Wish вышел спустя месяц и для тура в его поддержку к Propaganda присоединились бывшие члены Simple Minds басист Дерек Форбс (Derek Forbes) и ударник Брайан МакГи (Brian McGee). Для этого, полностью компьютерного альбома было характерно весьма насышенное, местами даже агрессивное, но вместе с тем мелодичное звучание, кстати очень характерное для других команд ZTT. В его создании принимали участие такие известные личности "волновой" эпохи, как David Sylvian, Glenn Gregory из Heaven 17, Steve Howe, ну и, естественно Trevor Horn - один из владельцев компании.
После выпуска альбома ремиксов Wishful Thinking группы, последовавшего в следующем году, Дорпер стал первым из первоначального состава, покинувшим группу. Вскоре Propaganda распалась из-за долгих судебных процессов с ZTT, связанных с решением членов группы уйти на другой лейбл. В конце-концов Propaganda вновь воссоединилась в 1988 году в обновленном составе: Мертенс, Форбс, МакГи и американская вокалистка Бетси Миллер (Betsi Miller). Квартет подписал контракт с Virgin, и выпустил альбом 1234 в 1990. Сингл "Heaven Give Me Words" (кстати написанный в соавторстве с Говардом Джонсом, королем синт-попа) попал в британский Top 40 в 1990, а "Only One Word" расположился чуть ниже.
Музыка с этого альбома за редким исключением, практически ничем не напоминала их дебютную работу: прилизанная, спокойная поп-музыка с танцевальным и чуть-чуть роковым уклоном, типичная в стиле того времени.
Тем временем Клаудиа Брюкен, оставшаяся с ZTT большей частью из-за своего брака с владельцем лейбла Полом Морли (Paul Morley) - сформировала с Томасом Лиром (Thomas Leer) дуэт Act. Дуэт попал в хит-парады с середине 1987 года с синглом "Snobbery and Decay". Act выпустил только один альбом Laughter, Tears, and Rage в1988 году. Затем Брюкен стала работать соло к концу восьмидесятых. Только один ее сингл попал в чарты. Это был "Absolut (E)" с ее альбома 1991 года Love, And a Million Other Things. Хотя ни группа ни Брюкен не записывались в последнее время в середине 90-х активно муссировались слухи о грядущем воссоединении...
P.S. В 2007 году c названием группы - Onetwo, вышел альбом " Instead".Основной состав, это - Claudia Brücken и Paul Humphreys (Orchestral Manoeuvres in the Dark [OMD])...

Отчёт ЕАС&#58;

Exact Audio Copy V0.99 prebeta 5 from 4. May 2009
Отчёт EAC об извлечении, выполненном 29. декабря 2009, 12:58
Propaganda / Outside World
Дисковод: HL-DT-STDVDRAM GSA-H10N Adapter: 0 ID: 0
Режим чтения : Достоверность
Использование точного потока : Да
Отключение кэша аудио : Да
Использование указателей C2 : Нет
Коррекция смещения при чтении : 667
Способность читать области Lead-in и Lead-out : Нет
Заполнение пропущенных сэмплов тишиной : Да
Удаление блоков с тишиной в начале и конце : Нет
При вычислениях CRC использовались нулевые сэмплы : Да
Интерфейс : Встроенный Win32-интерфейс для Win NT/2000
Выходной формат : Внутренние WAV-операции
Формат сэмплов : 44.100 Гц; 16 бит; стерео
TOC извлечённого CD
Трек | Старт | Длительность | Начальный сектор | Конечный сектор
---------------------------------------------------------------------
1 | 0:00.00 | 6:35.20 | 0 | 29644
2 | 6:35.20 | 2:47.67 | 29645 | 42236
3 | 9:23.12 | 9:33.40 | 42237 | 85251
4 | 18:56.52 | 7:37.65 | 85252 | 119591
5 | 26:34.42 | 4:18.25 | 119592 | 138966
6 | 30:52.67 | 5:30.63 | 138967 | 163779
7 | 36:23.55 | 6:53.50 | 163780 | 194804
8 | 43:17.30 | 10:57.20 | 194805 | 244099
9 | 54:14.50 | 9:55.45 | 244100 | 288769
10 | 64:10.20 | 3:21.42 | 288770 | 303886
11 | 67:31.62 | 10:20.43 | 303887 | 350429
Характеристики диапазона извлечения и сообщения об ошибках
Выбранный диапазон
Имя файла I:\SSSSSSSSSS\Propaganda - Outside World.wav
Пиковый уровень 98.8 %
Качество диапазона 100.0 %
CRC копии 0F69A225
Копирование... OK
Ошибок не произошло
AccurateRip: сводка
Трек 1 точное извлечение (доверие 4) [07C8B8C4]
Трек 2 точное извлечение (доверие 4) [4F88FCF9]
Трек 3 точное извлечение (доверие 4) [A2B5A895]
Трек 4 точное извлечение (доверие 4) [3123EEA7]
Трек 5 точное извлечение (доверие 4) [08BA381E]
Трек 6 точное извлечение (доверие 4) [C84C6A9F]
Трек 7 точное извлечение (доверие 4) [B5BC058C]
Трек 8 точное извлечение (доверие 4) [DE267EF7]
Трек 9 точное извлечение (доверие 4) [901B58B1]
Трек 10 точное извлечение (доверие 4) [65E5CE9A]
Трек 11 точное извлечение (доверие 4) [96B623A7]
Все треки извлечены точно
Конец отчёта

Отчёт Audiochecker&#58;

AUDIOCHECKER v2.0 beta (build 457) - by Dester - [url=mailto:[email protected]][email protected][/url]
~~~~~~~~~~~~~~~~~~~~~~~~~~~~~~~~~~
Started at: вторник, 29. 12. 2009. - 13:07.52
1 file found
1 -===- I:\SSSSSSSSSS\Propaganda - Outside World.flac
Extracted successfully
Conclusion: this track is CDDA with probability 100%
Tempfile successfully deleted.
Finished at: вторник, 29. 12. 2009. - 13:20.40 (operation time: 0:12.48)

Дополнительная информация&#58;

ZTT records in 1984/85, Released July 2, 2002(compilation album). Compact Dick ZTT records 2005 /CD-Rip
Время раздачи: 24/7 - круглосуточно
Яндекс.Метрика
Рейтинг@Mail.ru