Lenin - Magic Tour - Dance Mix (1994) [FLAC|Lossless]<EuroDance , EuroHouse>

 

Создавать темы 17-Дек-2014 11:56

-Lenin - Magic Tour - Dance Mix (1994)- Год: 1994
Жанр: EuroDance , EuroHouse
Продолжительность: 01:01:55
Кодек: FLAC
Битрейт: Lossless
Тип битрейта: CBR
Трек лист:
01. Mystery [04:31]
02. Get Up An Dance [04:09]
03. Uula-la-la [06:19]
04. Allah [04:55]
05. Drive My Heart [03:55]
06. Can I Feel You [06:21]
07. Magic Tour [04:15]
08. Force Of Power [03:10]
09. We Ain`t Back [04:14]
10. At Your Desire [06:29]
11. Tombola No.11 [07:54]
12. 4 Tea For You [05:36]

Дополнительная информация&#58;

Чернавский пригласил в Германию на пробу неизвестного исполнителя Андрея (который получил «ник» ЛEHNH). Но работа продвигалась столь успешно, что команда, участвующая в записи, приняла решение записать целый альбом.Чернавский в то время был вместе c Брюсом Хаммондом совладельцем компании «How’s That» Music Production, и уже было накоплено много материала, который и решили использовать в этом альбоме. Позже к продакшену присоединилась и компания «Pikosso Rесоrds». Альбом был выпущен 14 июля 1994-го года в России американским лейблом «MAX-C International Inc.» с помощью известного деятеля искусств и спорта Давида Рудмана и он мгновенно разошёлся по диско-клубам страны.К востогу авторов, российская молодёжь, танцевавшая исключительно Евроденс, так и не сообразила, что эта музыка производства россиян — её приняли, как привычные европейские дэнс-хиты. Более того, DJ в клубах отказывались верить, что это спето русским молодым пареньком. Такое же недоверие к этому факту сохранилось и до сих пор — СМИ мрачно молчало и молчит, а в России давно привыкли к тому, что «если на заборе что-то не написано — не верь глазам своим…» Правда в Питербурге сняли приличный стильный клип на сонг Ю. Чернавского — «Mister Ree» («Mystery»), но и это не помогло публике поверить в происходящее

Отчёт ЕАС&#58;

Exact Audio Copy V0.99 prebeta 5 from 4. May 2009
Отчёт EAC об извлечении, выполненном 11. ноября 2010, 22:47
Lenin / Magic Tour - Dance Mix
Дисковод: PHILIPS DVD-RAM SDVD8821   Adapter: 0  ID: 1
Режим чтения                 : Достоверность
Использование точного потока : Да
Отключение кэша аудио        : Да
Использование указателей C2  : Нет
Коррекция смещения при чтении                     : 6
Способность читать области Lead-in и Lead-out     : Нет
Заполнение пропущенных сэмплов тишиной            : Да
Удаление блоков с тишиной в начале и конце        : Нет
При вычислениях CRC использовались нулевые сэмплы : Да
Интерфейс                                         : Установленный внешний ASPI-интерфейс
Выходной формат : Внутренние WAV-операции
Формат сэмплов  : 44.100 Гц; 16 бит; стерео
TOC извлечённого CD
     Трек |   Старт  | Длительность | Начальный сектор | Конечный сектор
    ---------------------------------------------------------------------
       1  |  0:00.30 |    4:31.31   |          30      |      20385
       2  |  4:31.61 |    4:09.74   |       20386      |      39134
       3  |  8:41.60 |    6:19.24   |       39135      |      67583
       4  | 15:01.09 |    4:55.60   |       67584      |      89768
       5  | 19:56.69 |    3:55.18   |       89769      |     107411
       6  | 23:52.12 |    6:21.44   |      107412      |     136030
       7  | 30:13.56 |    4:15.36   |      136031      |     155191
       8  | 34:29.17 |    3:10.56   |      155192      |     169497
       9  | 37:39.73 |    4:14.74   |      169498      |     188621
      10  | 41:54.72 |    6:29.74   |      188622      |     217870
      11  | 48:24.71 |    7:54.42   |      217871      |     253462
      12  | 56:19.38 |    5:36.49   |      253463      |     278711
Характеристики диапазона извлечения и сообщения об ошибках
Выбранный диапазон
     Имя файла E:\Lenin FLAC\Lenin-Magic Tour - Dance Mix - 1994.wav
     Пиковый уровень 100.0 %
     Качество диапазона 99.8 %
     CRC копии 5755DB5F
     Копирование... OK
Ошибок не произошло
Конец отчёта

Отчёт auCDtect Task manager&#58;

-----------------------
DON'T MODIFY THIS FILE
-----------------------
PERFORMER: auCDtect Task Manager, ver. 1.5.1RC4 build 1.5.1.5
Copyright (c) 2008-2010 y-soft. All rights reserved
http://y-soft.org
ANALYZER: auCDtect: CD records authenticity detector, version 0.8.2
Copyright (c) 2004 Oleg Berngardt. All rights reserved.
Copyright (c) 2004 Alexander Djourik. All rights reserved.
FILE: Lenin-Magic Tour - Dance Mix - 1994.flac
  Size: 442938710 Hash: A1169DE43DB59FC9A056461514FEC1C1 Accuracy: -m0
  Conclusion: CDDA 100%
  Signature: D1C230AFAD129EA14B4523EDC90395BEDB60D0AF
-
Яндекс.Метрика
Рейтинг@Mail.ru