Sandra - 18 Greatest Hits (1992) (Japan press) [FLAC|Lossless]<Pop>

 

Создавать темы 17-Дек-2014 11:56

-Sandra - 18 Greatest Hits (1992) (Japan press)- Год: 1992
Label: Toshiba EMI Ltd – VJCP-28158
Country: Japan
Жанр: Pop
Продолжительность: 01:11:20
Кодек: FLAC
Битрейт: Lossless
Трек лист:
01. Maria Magdalena
02. In the Heat of the Night
03. Little Girl
04. Innocent Love
05. Hi! Hi! Hi!
06. Loreen
07. Midnight Man
08. Everlasting Love
09. Stop for a Minute
10. Heaven Can Wait
11. Secret Land
12. We'll Be Together
13. Around My Heart
14. Hiroshima
15. (Life May Be) A Big Insanity
16. One More Night
17. Don't Be Aggressive
18. Johnny Wanna Live

Отчёт ЕАС&#58;

Exact Audio Copy V0.99 prebeta 5 from 4. May 2009
Отчёт EAC об извлечении, выполненном 2. августа 2010, 6:57
Sandra / 18 Greatest Hits
Дисковод: MATSHITABD-MLT UJ-210S   Adapter: 0  ID: 0
Режим чтения                 : Достоверность
Использование точного потока : Да
Отключение кэша аудио        : Да
Использование указателей C2  : Нет
Коррекция смещения при чтении                     : 102
Способность читать области Lead-in и Lead-out     : Нет
Заполнение пропущенных сэмплов тишиной            : Да
Удаление блоков с тишиной в начале и конце        : Нет
При вычислениях CRC использовались нулевые сэмплы : Да
Интерфейс                                         : Встроенный Win32-интерфейс для Win NT/2000
Выходной формат : Внутренние WAV-операции
Формат сэмплов  : 44.100 Гц; 16 бит; стерео
TOC извлечённого CD
     Трек |   Старт  | Длительность | Начальный сектор | Конечный сектор
    ---------------------------------------------------------------------
       1  |  0:00.00 |    4:00.32   |           0      |      18031
       2  |  4:00.32 |    5:01.70   |       18032      |      40676
       3  |  9:02.27 |    3:10.10   |       40677      |      54936
       4  | 12:12.37 |    4:17.08   |       54937      |      74219
       5  | 16:29.45 |    4:10.07   |       74220      |      92976
       6  | 20:39.52 |    4:11.00   |       92977      |     111801
       7  | 24:50.52 |    3:04.10   |      111802      |     125611
       8  | 27:54.62 |    3:41.10   |      125612      |     142196
       9  | 31:35.72 |    4:04.00   |      142197      |     160496
      10  | 35:39.72 |    4:06.70   |      160497      |     179016
      11  | 39:46.67 |    4:02.73   |      179017      |     197239
      12  | 43:49.65 |    3:47.60   |      197240      |     214324
      13  | 47:37.50 |    3:08.05   |      214325      |     228429
      14  | 50:45.55 |    4:14.05   |      228430      |     247484
      15  | 54:59.60 |    4:27.32   |      247485      |     267541
      16  | 59:27.17 |    3:41.28   |      267542      |     284144
      17  | 63:08.45 |    4:23.50   |      284145      |     303919
      18  | 67:32.20 |    3:48.10   |      303920      |     321029
Характеристики диапазона извлечения и сообщения об ошибках
Выбранный диапазон
     Имя файла J:\temp\Sandra - 18 Greatest Hits.wav
     Пиковый уровень 100.0 %
     Качество диапазона 100.0 %
     CRC теста FA23A8EA
     CRC копии FA23A8EA
     Копирование... OK
Ошибок не произошло
AccurateRip: сводка
Трек  1  нет в базе данных
Трек  2  нет в базе данных
Трек  3  нет в базе данных
Трек  4  нет в базе данных
Трек  5  нет в базе данных
Трек  6  нет в базе данных
Трек  7  нет в базе данных
Трек  8  нет в базе данных
Трек  9  нет в базе данных
Трек 10  нет в базе данных
Трек 11  нет в базе данных
Трек 12  нет в базе данных
Трек 13  нет в базе данных
Трек 14  нет в базе данных
Трек 15  нет в базе данных
Трек 16  нет в базе данных
Трек 17  нет в базе данных
Трек 18  нет в базе данных
Ни одного трека нет в базе AccurateRip
Конец отчёта

Отчёт auCDtect Task manager&#58;

-----------------------
DON'T MODIFY THIS FILE
-----------------------
PERFORMER: auCDtect Task Manager, ver. 1.5.1RC6 build 1.5.1.7
Copyright (c) 2008-2010 y-soft. All rights reserved
http://y-soft.org
ANALYZER: auCDtect: CD records authenticity detector, version 0.8.2
Copyright (c) 2004 Oleg Berngardt. All rights reserved.
Copyright (c) 2004 Alexander Djourik. All rights reserved.
FILE: Sandra - 18 Greatest Hits.flac
  Size: 520708493 Hash: A4CCE228338326F756A1DDF8C202F56D Accuracy: -m0
  Conclusion: MPEG 95%
  Signature: C8C95C4A76409AEFE60F3D54D9BB02A4F4A7DFB8
-
Яндекс.Метрика
Рейтинг@Mail.ru