Duran Duran - All You Need Is Now (Exclusive Deluxe Edition) (2011) [FLAC|Lossless]<Pop, Synthpop>

 

Создавать темы 17-Дек-2014 11:56

-Duran Duran - All You Need Is Now (Exclusive Deluxe Edition)- Год: 2011
Жанр: Pop, Synthpop
Продолжительность: 01:08:27
Кодек: FLAC
Битрейт: Lossless
Трек лист:
01. All You Need Is Now
02. Blame The Machines
03. Being Followed
04. Leave A Light On 4:38
05. Safe (In The Heat Of The Moment) (ft. Ana Matronic)
06. Girl Panic!
07. A Diamond In The Mind
08. The Man Who Stole A Leopard (ft. Kelis)
09. Other People's Lives
10. Mediterranea
11. Too Bad You're So Beautiful
12. Runway Runaway
13. Return To Now
14. Before The Rain
15. Too Close To The Sun
16. Early Summer Nerves
17. Networker Nation

Отчёт ЕАС&#58;

Exact Audio Copy V1.0 beta 1 from 15. November 2010
EAC extraction logfile from 22. March 2011, 20:27
Duran Duran / All You Need Is Now (Best Buy Exclusive Deluxe Edition)
Used drive  : BENQ    DVD DD DW1650   Adapter: 0  ID: 1
Read mode               : Secure
Utilize accurate stream : Yes
Defeat audio cache      : Yes
Make use of C2 pointers : No
Read offset correction                      : 618
Overread into Lead-In and Lead-Out          : No
Fill up missing offset samples with silence : Yes
Delete leading and trailing silent blocks   : No
Null samples used in CRC calculations       : Yes
Used interface                              : Native Win32 interface for Win NT & 2000
Gap handling                                : Appended to previous track
Used output format              : User Defined Encoder
Selected bitrate                : 128 kBit/s
Quality                         : High
Add ID3 tag                     : No
Command line compressor         : C:\Program Files\FLAC\flac.exe
Additional command line options : -V -8 -T "artist=%a" -T "title=%t" -T "album=%g" -T "date=%y" -T "tracknumber=%n" -T "genre=%m" %s
TOC of the extracted CD
     Track |   Start  |  Length  | Start sector | End sector
    ---------------------------------------------------------
        1  |  0:00.00 |  4:33.67 |         0    |    20541
        2  |  4:33.67 |  4:09.40 |     20542    |    39256
        3  |  8:43.32 |  3:49.64 |     39257    |    56495
        4  | 12:33.21 |  4:38.00 |     56496    |    77345
        5  | 17:11.21 |  4:01.19 |     77346    |    95439
        6  | 21:12.40 |  4:34.51 |     95440    |   116040
        7  | 25:47.16 |  1:18.06 |    116041    |   121896
        8  | 27:05.22 |  6:14.43 |    121897    |   149989
        9  | 33:19.65 |  3:45.70 |    149990    |   166934
       10  | 37:05.60 |  5:40.34 |    166935    |   192468
       11  | 42:46.19 |  4:55.43 |    192469    |   214636
       12  | 47:41.62 |  3:07.34 |    214637    |   228695
       13  | 50:49.21 |  1:36.07 |    228696    |   235902
       14  | 52:25.28 |  4:40.06 |    235903    |   256908
       15  | 57:05.34 |  5:15.46 |    256909    |   280579
       16  | 62:21.05 |  3:03.63 |    280580    |   294367
       17  | 65:24.68 |  3:10.23 |    294368    |   308640
Track  1
     Filename C:\Duran Duran\2011 - All You Need Is Now (Best Buy Exclusive Deluxe Edition)\01 - All You Need Is Now.wav
     Pre-gap length  0:00:02.00
     Peak level 97.7 %
     Extraction speed 6.0 X
     Track quality 100.0 %
     Test CRC 02284BE7
     Copy CRC 02284BE7
     Track not present in AccurateRip database
     Copy OK
Track  2
     Filename C:\Duran Duran\2011 - All You Need Is Now (Best Buy Exclusive Deluxe Edition)\02 - Blame The Machines.wav
     Peak level 97.7 %
     Extraction speed 6.5 X
     Track quality 100.0 %
     Test CRC 187B9EDE
     Copy CRC 187B9EDE
     Track not present in AccurateRip database
     Copy OK
Track  3
     Filename C:\Duran Duran\2011 - All You Need Is Now (Best Buy Exclusive Deluxe Edition)\03 - Being Followed.wav
     Peak level 97.7 %
     Extraction speed 6.9 X
     Track quality 100.0 %
     Test CRC A232EB76
     Copy CRC A232EB76
     Track not present in AccurateRip database
     Copy OK
Track  4
     Filename C:\Duran Duran\2011 - All You Need Is Now (Best Buy Exclusive Deluxe Edition)\04 - Leave A Light On.wav
     Peak level 97.7 %
     Extraction speed 7.6 X
     Track quality 100.0 %
     Test CRC 03A1E21B
     Copy CRC 03A1E21B
     Track not present in AccurateRip database
     Copy OK
Track  5
     Filename C:\Duran Duran\2011 - All You Need Is Now (Best Buy Exclusive Deluxe Edition)\05 - Safe (In The Heat Of The Moment).wav
     Peak level 97.7 %
     Extraction speed 7.8 X
     Track quality 100.0 %
     Test CRC D52CBE36
     Copy CRC D52CBE36
     Track not present in AccurateRip database
     Copy OK
Track  6
     Filename C:\Duran Duran\2011 - All You Need Is Now (Best Buy Exclusive Deluxe Edition)\06 - Girl Panic!.wav
     Peak level 97.7 %
     Extraction speed 8.4 X
     Track quality 100.0 %
     Test CRC 97B4AB15
     Copy CRC 97B4AB15
     Track not present in AccurateRip database
     Copy OK
Track  7
     Filename C:\Duran Duran\2011 - All You Need Is Now (Best Buy Exclusive Deluxe Edition)\07 - A Diamond In The Mind.wav
     Peak level 83.2 %
     Extraction speed 6.5 X
     Track quality 100.0 %
     Test CRC 27E6CF2B
     Copy CRC 27E6CF2B
     Track not present in AccurateRip database
     Copy OK
Track  8
     Filename C:\Duran Duran\2011 - All You Need Is Now (Best Buy Exclusive Deluxe Edition)\08 - The Man Who Stole A Leopard.wav
     Peak level 97.7 %
     Extraction speed 8.2 X
     Track quality 99.9 %
     Test CRC 4380B9F3
     Copy CRC 4380B9F3
     Track not present in AccurateRip database
     Copy OK
Track  9
     Filename C:\Duran Duran\2011 - All You Need Is Now (Best Buy Exclusive Deluxe Edition)\09 - Other People's Lives.wav
     Peak level 97.7 %
     Extraction speed 9.1 X
     Track quality 100.0 %
     Test CRC E6F9FE7D
     Copy CRC E6F9FE7D
     Track not present in AccurateRip database
     Copy OK
Track 10
     Filename C:\Duran Duran\2011 - All You Need Is Now (Best Buy Exclusive Deluxe Edition)\10 - Mediterranea.wav
     Peak level 97.7 %
     Extraction speed 10.0 X
     Track quality 100.0 %
     Test CRC 906FF44F
     Copy CRC 906FF44F
     Track not present in AccurateRip database
     Copy OK
Track 11
     Filename C:\Duran Duran\2011 - All You Need Is Now (Best Buy Exclusive Deluxe Edition)\11 - Too Bad You're So Beautiful.wav
     Peak level 97.7 %
     Extraction speed 10.2 X
     Track quality 100.0 %
     Test CRC 349FCDF9
     Copy CRC 349FCDF9
     Track not present in AccurateRip database
     Copy OK
Track 12
     Filename C:\Duran Duran\2011 - All You Need Is Now (Best Buy Exclusive Deluxe Edition)\12 - Runway Runaway.wav
     Peak level 97.7 %
     Extraction speed 9.9 X
     Track quality 100.0 %
     Test CRC 3F38065E
     Copy CRC 3F38065E
     Track not present in AccurateRip database
     Copy OK
Track 13
     Filename C:\Duran Duran\2011 - All You Need Is Now (Best Buy Exclusive Deluxe Edition)\13 - Return To Now.wav
     Peak level 64.0 %
     Extraction speed 8.6 X
     Track quality 100.0 %
     Test CRC 9F2C4739
     Copy CRC 9F2C4739
     Track not present in AccurateRip database
     Copy OK
Track 14
     Filename C:\Duran Duran\2011 - All You Need Is Now (Best Buy Exclusive Deluxe Edition)\14 - Before The Rain.wav
     Peak level 97.7 %
     Extraction speed 10.8 X
     Track quality 100.0 %
     Test CRC D43967EE
     Copy CRC D43967EE
     Track not present in AccurateRip database
     Copy OK
Track 15
     Filename C:\Duran Duran\2011 - All You Need Is Now (Best Buy Exclusive Deluxe Edition)\15 - To Close To The Sun.wav
     Pre-gap length  0:00:14.81
     Peak level 96.4 %
     Extraction speed 11.3 X
     Track quality 100.0 %
     Test CRC CF9ED2CA
     Copy CRC CF9ED2CA
     Track not present in AccurateRip database
     Copy OK
Track 16
     Filename C:\Duran Duran\2011 - All You Need Is Now (Best Buy Exclusive Deluxe Edition)\16 - Early Summer Nerves.wav
     Peak level 96.6 %
     Extraction speed 10.6 X
     Track quality 100.0 %
     Test CRC DA20EB9B
     Copy CRC DA20EB9B
     Track not present in AccurateRip database
     Copy OK
Track 17
     Filename C:\Duran Duran\2011 - All You Need Is Now (Best Buy Exclusive Deluxe Edition)\17 - Networker  Nation.wav
     Peak level 97.7 %
     Extraction speed 8.6 X
     Track quality 99.9 %
     Test CRC F485D24D
     Copy CRC F485D24D
     Track not present in AccurateRip database
     Copy OK
None of the tracks are present in the AccurateRip database
No errors occurred
End of status report
==== Log checksum 4523ACF66E2D8BDC9C095DEE92C6FF01B946113AED4B8CB55C55CFCE889F6A92 ====

Отчёт auCDtect Task manager&#58;

-----------------------
DON'T MODIFY THIS FILE
-----------------------
PERFORMER: auCDtect Task Manager, ver. 1.5.1RC4 build 1.5.1.5
Copyright (c) 2008-2010 y-soft. All rights reserved
http://y-soft.org
ANALYZER: auCDtect: CD records authenticity detector, version 0.8.2
Copyright (c) 2004 Oleg Berngardt. All rights reserved.
Copyright (c) 2004 Alexander Djourik. All rights reserved.
FILE: 17 - Networker  Nation.flac
  Size: 24916114 Hash: 239251B3265872EEE64743D2D2638387 Accuracy: -m0
  Conclusion: CDDA 100%
  Signature: 08173F67537E28EA16B68CDDEA42B9892099F4F1
FILE: 16 - Early Summer Nerves.flac
  Size: 21379893 Hash: E495E11A5DFBED37AC71DF9FD7E6D4D8 Accuracy: -m0
  Conclusion: CDDA 100%
  Signature: 4060648394EB0D7BBFA6118DDF64C2C2008786B7
FILE: 15 - To Close To The Sun.flac
  Size: 37998796 Hash: 03C698E6FB4421C20FD3A2335776632E Accuracy: -m0
  Conclusion: CDDA 100%
  Signature: 8BD3B9DDD879F59DCCFF3079423F540C67F11D5D
FILE: 14 - Before The Rain.flac
  Size: 31041607 Hash: B9916AC604DEE6E525AC27B05DBD1E9D Accuracy: -m0
  Conclusion: CDDA 100%
  Signature: 0A4DF58A013A7342BE9F8CF4FE27621BF7424E1A
FILE: 13 - Return To Now.flac
  Size: 8436282 Hash: 4462122BB17CB4E537EAB612C2099583 Accuracy: -m0
  Conclusion: CDDA 100%
  Signature: AF2EFD37A409D90BB19952A2BCBA1BBC86D113C8
FILE: 12 - Runway Runaway.flac
  Size: 24895124 Hash: 1F1B367CE43047BAE7A43A36704AA4C4 Accuracy: -m0
  Conclusion: CDDA 100%
  Signature: 3500327A13FFD9C857C1155C082E731502450340
FILE: 11 - Too Bad You're So Beautiful.flac
  Size: 38503851 Hash: 01683BE6ED8A3B0C55321136E06610A5 Accuracy: -m0
  Conclusion: CDDA 100%
  Signature: 6CECC35E603E9CFD3207DE323055E05A482F0232
FILE: 10 - Mediterranea.flac
  Size: 42630829 Hash: EC3B98FCD4FBC4368F0FF3B1851E74C9 Accuracy: -m0
  Conclusion: CDDA 100%
  Signature: 9006D7BE48E3F152D7CCFFE6F76D2A232C16F2A8
FILE: 09 - Other People's Lives.flac
  Size: 30625005 Hash: BE8C9933FB83570DD2DEE80B682D3B13 Accuracy: -m0
  Conclusion: CDDA 100%
  Signature: 630BAAFD241AE2236DB5F2E42C111BA4F21815D1
FILE: 08 - The Man Who Stole A Leopard.flac
  Size: 45368090 Hash: D48512CAFD0679C4BD0F9D1BC6C78A9B Accuracy: -m0
  Conclusion: CDDA 100%
  Signature: F7DDD48755DB92592801F4E8F64CACEB0F8C8976
FILE: 07 - A Diamond In The Mind.flac
  Size: 6504155 Hash: 58A88364F1C75BFAEF24DB4D7C8B8A50 Accuracy: -m0
  Conclusion: CDDA 100%
  Signature: 1C5DD5482239D722C3F5A1E1CC8BAC0105F5A7BB
FILE: 06 - Girl Panic!.flac
  Size: 36044488 Hash: 36F0BBD564555C45605A7559052B76D0 Accuracy: -m0
  Conclusion: CDDA 100%
  Signature: 0A1011FA5A0144C8AA967FFA6DDF5A02034EE6E7
FILE: 05 - Safe (In The Heat Of The Moment).flac
  Size: 29928815 Hash: 7B23833FE75B03DEBC491E5231D610E4 Accuracy: -m0
  Conclusion: CDDA 100%
  Signature: 0E817049F71C709C37A807BEAC2E7552EC766427
FILE: 04 - Leave A Light On.flac
  Size: 33568573 Hash: 384B1A0C878D26AEAA9A873002E93A88 Accuracy: -m0
  Conclusion: CDDA 100%
  Signature: 7F899068678B4A0A686CF9B92F7DFBD680F34F11
FILE: 03 - Being Followed.flac
  Size: 29501106 Hash: CF7DC746F06676CACAA9AE578A2E9DDB Accuracy: -m0
  Conclusion: CDDA 100%
  Signature: 8FA232547897276D7015CF2CD292F7FC8E3BE2F6
FILE: 02 - Blame The Machines.flac
  Size: 31947957 Hash: D98817B73407FA43B49F1B89A0C86DC2 Accuracy: -m0
  Conclusion: CDDA 99%
  Signature: 702238C9BE841F47321972CCEF4913E701422E16
FILE: 01 - All You Need Is Now.flac
  Size: 36131945 Hash: 5A87636BA2E95E24DB8526203E29D4F8 Accuracy: -m0
  Conclusion: CDDA 100%
  Signature: 4C129BA783EB5F73863B8E471615D2BB46AF6488
-
Яндекс.Метрика
Рейтинг@Mail.ru