Oceana - Endless Summer (Official Song EURO 2012) (Maxi-Single) (2012) [FLAC|Lossless]<Pop, euro-house>

 

Создавать темы 17-Дек-2014 11:56

-Oceana - Endless Summer (Official Song EURO 2012) (Maxi-Single) (2012)- Год: 2012
Жанр: Pop, euro-house
Продолжительность: 00:34:32
Кодек: FLAC
Битрейт: Lossless
Трек лист:
01. Endless Summer (Radio Edit)
02. Endless Summer (Additional Radio Edit)
03. Endless Summer (Extended Mix)
04. Endless Summer (CJ Stone Remix)
05. Endless Summer (CJ Stone Edit)
06. Endless Summer (Bodybangers Remix)
07. Endless Summer (Remady Remix)
08. Endless Summer (Remady Extended Mix)

Дополнительная информация&#58;

Макси-сингл Endless Summer (Official Song EURO 2012). УЕФА выбрал, кто споет гимн Евро-2012, 29-летняя немецко-американская певица по имени Oceana — песня заводная и веселая. Oceana также стала и автором стихов будущего футбольного хита. Напомним, Oceana была гвоздем программы на жеребьевке чемпионата, которая состоялась 2 декабря. Она выступила на сцене Дворца «Украина» с песней «Еndless summer». Видеоклип официальной песни чемпионата Европы по футболу 2012 года — композиции Endless Summer певицы Oceana начинается с поездки на арену, где состоится матч-открытие чемпионата — Национальный стадион в Варшаве. Далее сюжет сочетается передачей символического паса, который объединяет все принимающие города Евро-2012. Завершается видеокадрами с НСК "Олимпийский". Именно здесь 1 июля Европа узнает имя нового чемпиона Европы, передает Информационный центр "Украина-2012". В съемках клипа приняли участие игроки национальных сборных Польши и Украины Роберт Левандовски и Анатолий Тимощук. Кроме того, показано яркие эпизоды из прошлых чемпионатов, лучшие голы и эмоции болельщиков.

Отчёт ЕАС&#58;

Exact Audio Copy V1.0 beta 3 from 31. May 2012
EAC extraction logfile from 1. June 2012, 17:32
Oceana / Endless Summer
Used drive  : Optiarc DVD RW AD-7283S   Adapter: 4  ID: 0
Read mode               : Secure
Utilize accurate stream : Yes
Defeat audio cache      : Yes
Make use of C2 pointers : No
Read offset correction                      : 48
Overread into Lead-In and Lead-Out          : No
Fill up missing offset samples with silence : Yes
Delete leading and trailing silent blocks   : No
Null samples used in CRC calculations       : Yes
Used interface                              : Native Win32 interface for Win NT & 2000
Used output format              : User Defined Encoder
Selected bitrate                : 128 kBit/s
Quality                         : High
Add ID3 tag                     : No
Command line compressor         : C:\Program Files (x86)\Exact Audio Copy\Flac\flac.exe
Additional command line options : -V -8 -T "Date=%year%" -T "Genre=%genre%" %source%
TOC of the extracted CD
     Track |   Start  |  Length  | Start sector | End sector
    ---------------------------------------------------------
        1  |  0:00.00 |  3:31.73 |         0    |    15897
        2  |  3:31.73 |  3:12.69 |     15898    |    30366
        3  |  6:44.67 |  4:54.28 |     30367    |    52444
        4  | 11:39.20 |  5:52.66 |     52445    |    78910
        5  | 17:32.11 |  3:31.25 |     78911    |    94760
        6  | 21:03.36 |  4:52.54 |     94761    |   116714
        7  | 25:56.15 |  3:35.08 |    116715    |   132847
        8  | 29:31.23 |  5:13.52 |    132848    |   156374
Range status and errors
Selected range
     Filename C:\Oceana - Endless Summer.wav
     Peak level 100.0 %
     Extraction speed 3.5 X
     Range quality 100.0 %
     Test CRC 348E415B
     Copy CRC 348E415B
     Copy OK
No errors occurred
AccurateRip summary
Track  1  not present in database
Track  2  not present in database
Track  3  not present in database
Track  4  not present in database
Track  5  not present in database
Track  6  not present in database
Track  7  not present in database
Track  8  not present in database
None of the tracks are present in the AccurateRip database
End of status report
==== Log checksum E80499B15E2C5E8B6DA3E1AE2B038E1CBF947D071C2546A99D30FED45DF67608 ====

Отчёт auCDtect Task manager&#58;

-----------------------
DON'T MODIFY THIS FILE
-----------------------
PERFORMER: auCDtect Task Manager, ver. 1.5.1RC6 build 1.5.1.7
Copyright (c) 2008-2010 y-soft. All rights reserved
http://y-soft.org
ANALYZER: auCDtect: CD records authenticity detector, version 0.8.2
Copyright (c) 2004 Oleg Berngardt. All rights reserved.
Copyright (c) 2004 Alexander Djourik. All rights reserved.
FILE: Oceana - Endless Summer.flac
  Size: 281579368 Hash: 252AA68E18D36C394A4CBB2FAE241DE3 Accuracy: -m0
  Conclusion: CDDA 100%
  Signature: 1FF5D9C836205BFABCFEB77AEB79667CDA11B97E
-
Яндекс.Метрика
Рейтинг@Mail.ru