[ Сегодня на трекере фрилич! Идет свободное скачивание без начисления Download ]

Ostric - The Ostrich Effect (2012) [FLAC|Lossless]<Synth-Pop>

 

Создавать темы 17-Дек-2014 11:56

-Ostric - The Ostrich Effect (2012)- Год: 2012
Жанр: Synth-Pop
Продолжительность: 00:49:01
Кодек: FLAC
Битрейт: Lossless
Тип рипа: image+.cue
Трек лист:
01. A Need To Believe (4:08)
02. Lukewarm (4:25)
03. Lonely Ghost (3:17)
04. Turn The Tide (3:40)
05. Es Loco (4:04)
06. Sleepy Angels (5:00)
07. I Am Out (4:12)
08. Gold, Silver & Stones (3:27)
09. Prepare To Fall (3:40)
10. Icecold Kisses (3:05)
11. Firealarm (5:30)
12. The Clown (4:27)

Отчёт ЕАС&#58;

Exact Audio Copy V1.0 beta 3 from 29. August 2011
Отчёт EAC об извлечении, выполненном 27. июня 2012, 20:09
Ostrich / The Ostrich Effect
Дисковод: PLEXTOR DVDR   PX-L890SA   Adapter: 3  ID: 0
Режим чтения                 : Достоверность
Использование точного потока : Да
Отключение кэша аудио        : Да
Использование указателей C2  : Нет
Коррекция смещения при чтении                     : 6
Способность читать области Lead-in и Lead-out     : Нет
Заполнение пропущенных сэмплов тишиной            : Да
Удаление блоков с тишиной в начале и конце        : Нет
При вычислениях CRC использовались нулевые сэмплы : Да
Интерфейс                                         : Встроенный Win32-интерфейс для Win NT/2000
Выходной формат          : Пользовательский кодировщик
Выбранный битрейт        : 1024 kBit/s
Качество                 : Высокий
Добавление ID3-тега      : Нет
Утилита сжатия           : C:\Program Files\Exact Audio Copy\Flac\flac.exe
Дополнительные параметры : -6 -V -T "Date=%year%" -T "Genre=%genre%" %source%
TOC извлечённого CD
     Трек |   Старт  | Длительность | Начальный сектор | Конечный сектор
    ---------------------------------------------------------------------
       1  |  0:00.00 |    4:10.51   |           0      |      18800
       2  |  4:10.51 |    4:27.44   |       18801      |      38869
       3  |  8:38.20 |    3:19.53   |       38870      |      53847
       4  | 11:57.73 |    3:42.01   |       53848      |      70498
       5  | 15:39.74 |    4:05.74   |       70499      |      88947
       6  | 19:45.73 |    5:02.15   |       88948      |     111612
       7  | 24:48.13 |    4:14.51   |      111613      |     130713
       8  | 29:02.64 |    3:29.55   |      130714      |     146443
       9  | 32:32.44 |    3:42.44   |      146444      |     163137
      10  | 36:15.13 |    3:07.31   |      163138      |     177193
      11  | 39:22.44 |    5:32.54   |      177194      |     202147
      12  | 44:55.23 |    4:27.64   |      202148      |     222236
Характеристики диапазона извлечения и сообщения об ошибках
Выбранный диапазон
     Имя файла D:\Раздачи\Ostrich-The Ostrich Effect\Ostrich - The Ostrich Effect.wav
     Пиковый уровень 100.0 %
     Скорость извлечения 5.8 X
     Качество диапазона 100.0 %
     CRC теста 6E6600A1
     CRC копии 6E6600A1
     Копирование... OK
Ошибок не произошло
AccurateRip: сводка
Трек  1  : извлечено точно (доверие 1)  [FFB13C22]  (AR v1)
Трек  2  : извлечено точно (доверие 1)  [3C478B81]  (AR v1)
Трек  3  : извлечено точно (доверие 1)  [519E18D1]  (AR v1)
Трек  4  : извлечено точно (доверие 1)  [F0B6A1F7]  (AR v1)
Трек  5  : извлечено точно (доверие 1)  [74F22363]  (AR v1)
Трек  6  : извлечено точно (доверие 1)  [F1F5ECA1]  (AR v1)
Трек  7  : извлечено точно (доверие 1)  [1348CAC8]  (AR v1)
Трек  8  : извлечено точно (доверие 1)  [1159F323]  (AR v1)
Трек  9  : извлечено точно (доверие 1)  [1F34CEF1]  (AR v1)
Трек 10  : извлечено точно (доверие 1)  [C2C01264]  (AR v1)
Трек 11  : извлечено точно (доверие 1)  [6E51A8D8]  (AR v1)
Трек 12  : извлечено точно (доверие 1)  [D1EF04BC]  (AR v1)
Все треки извлечены точно
Конец отчёта

Отчёт auCDtect Task manager&#58;

-----------------------
DON'T MODIFY THIS FILE
-----------------------
PERFORMER: auCDtect Task Manager, ver. 1.5.1RC2 build 1.5.1.3
Copyright (c) 2008-2010 y-soft. All rights reserved
http://y-soft.org
ANALYZER: auCDtect: CD records authenticity detector, version 0.8.2
Copyright (c) 2004 Oleg Berngardt. All rights reserved.
Copyright (c) 2004 Alexander Djourik. All rights reserved.
FILE: Ostrich - The Ostrich Effect.Flac
  Size: 337959445 Hash: D25C31CC24514B8B7DE2B5802D29E45F Accuracy: -m0
  Conclusion: CDDA 100%
  Signature: 62D4E9479ACA75519A402D379A6B88CBD9F11196
Время раздачи: До 5-ти скачавших, каждый день с обеда до позднего вечера (Мск)
Яндекс.Метрика
Рейтинг@Mail.ru