Pet Shop Boys - Format (2CD) (2012) [FLAC|Lossless]<Pop, Electropop>

 

Создавать темы 17-Дек-2014 11:56

-Pet Shop Boys - Format (2CD) (2012)- Год: 2012
Жанр: Pop, Electropop
Продолжительность: 02:36:28
Кодек: FLAC
Битрейт: Lossless-Трек лист:-CD1 (01:17:41)
01. The Truck Driver And His Mate
02. Hit And Miss
03. In The Night 1995
04. Betrayed
05. How I Learned To Hate Rock-And-Roll - and
06. Discoteca (New Version)
07. The Calm Before The Storm
08. Confidential (Demo For Tina Turner) [2012 - Remaster]
09. The Boy Who Couldn't Keep His Clothes On
10. Delusions Of Grandeur
11. The View From Your Balcony
12. Disco Potential
13. Silver Age
14. Screaming
15. The Ghost Of Myself
16. Casting A Shadow
17. Lies
18. Sexy Northerner-

CD2 (01&#58;18&#58;46&#41;

01. Always
02. Nightlife
03. Searching For The Face Of Jesus
04. Between Two Islands
05. Friendly Fire
06. We're The Pet Shop Boys
07. Transparent
08. I Didn't Get Where I Am Today
09. The Resurrectionist
10. Girls Don't Cry
11. In Private (7-Inch Mix) - inch mix)
12. Blue On Blue
13. No Time For Tears (7-Inch Mix) - inch mix)
14. Bright Young Things
15. Party Song
16. We're All Criminals Now
17. Gin And Jag
18. After The Event
19. The Former Enfant Terrible
20. Up And Down

CD1 EAC&#58;

Exact Audio Copy V1.0 beta 3 from 29. August 2011
EAC extraction logfile from 23. January 2012, 18:28
Pet Shop Boys / Format CD1
Used drive  : TSSTcorpDVD+-RW TS-H653G   Adapter: 1  ID: 0
Read mode               : Secure
Utilize accurate stream : Yes
Defeat audio cache      : Yes
Make use of C2 pointers : No
Read offset correction                      : 6
Overread into Lead-In and Lead-Out          : No
Fill up missing offset samples with silence : Yes
Delete leading and trailing silent blocks   : No
Null samples used in CRC calculations       : Yes
Used interface                              : Native Win32 interface for Win NT & 2000
Gap handling                                : Appended to previous track
Used output format              : User Defined Encoder
Selected bitrate                : 1024 kBit/s
Quality                         : High
Add ID3 tag                     : No
Command line compressor         : C:\Program Files\Exact Audio Copy\FLAC\FLAC.EXE
Additional command line options : -8 -V -T "ARTIST=%artist%" -T "TITLE=%title%" -T "ALBUM=%albumtitle%" -T "DATE=%year%" -T "TRACKNUMBER=%tracknr%" -T "GENRE=%genre%" -T "PERFORMER=%albuminterpret%" -T "COMPOSER=%composer%" %haslyrics%--tag-from-file=LYRICS="%lyricsfile%"%haslyrics% -T "ALBUMARTIST=%albumartist%" -T "ALBUM ARTIST=%albumartist%" -T "DISCNUMBER=%cdnumber%" -T "TOTALDISCS=%totalcds%" -T "TOTALTRACKS=%numtracks%" -T "COMMENT=EAC V1.0 beta 2, Secure Mode, Test & Copy, AccurateRip, FLAC -8" %source% -o %dest%
TOC of the extracted CD
     Track |   Start  |  Length  | Start sector | End sector
    ---------------------------------------------------------
        1  |  0:00.00 |  3:34.24 |         0    |    16073
        2  |  3:34.24 |  4:07.22 |     16074    |    34620
        3  |  7:41.46 |  4:16.30 |     34621    |    53850
        4  | 11:58.01 |  5:19.25 |     53851    |    77800
        5  | 17:17.26 |  4:37.63 |     77801    |    98638
        6  | 21:55.14 |  3:43.15 |     98639    |   115378
        7  | 25:38.29 |  2:46.24 |    115379    |   127852
        8  | 28:24.53 |  4:46.70 |    127853    |   149372
        9  | 33:11.48 |  6:05.27 |    149373    |   176774
       10  | 39:17.00 |  5:03.69 |    176775    |   199568
       11  | 44:20.69 |  3:44.63 |    199569    |   216431
       12  | 48:05.57 |  4:06.71 |    216432    |   234952
       13  | 52:12.53 |  3:32.44 |    234953    |   250896
       14  | 55:45.22 |  4:55.39 |    250897    |   273060
       15  | 60:40.61 |  4:02.59 |    273061    |   291269
       16  | 64:43.45 |  4:36.60 |    291270    |   312029
       17  | 69:20.30 |  4:39.03 |    312030    |   332957
       18  | 73:59.33 |  3:42.22 |    332958    |   349629
Track  1
     Filename C:\EACRips\01 - The truck-driver and his mate.wav
     Pre-gap length  0:00:02.00
     Peak level 99.9 %
     Extraction speed 2.0 X
     Track quality 100.0 %
     Test CRC C2844C67
     Copy CRC C2844C67
     Track not present in AccurateRip database
     Copy OK
Track  2
     Filename C:\EACRips\02 - Hit and miss.wav
     Pre-gap length  0:00:00.02
     Peak level 99.9 %
     Extraction speed 1.8 X
     Track quality 99.9 %
     Test CRC FFD2FA4A
     Copy CRC FFD2FA4A
     Track not present in AccurateRip database
     Copy OK
Track  3
     Filename C:\EACRips\03 - In the night 1995.wav
     Pre-gap length  0:00:00.40
     Peak level 99.9 %
     Extraction speed 2.1 X
     Track quality 100.0 %
     Test CRC 62BE4F2A
     Copy CRC 62BE4F2A
     Track not present in AccurateRip database
     Copy OK
Track  4
     Filename C:\EACRips\04 - Betrayed.wav
     Pre-gap length  0:00:00.08
     Peak level 99.9 %
     Extraction speed 1.9 X
     Track quality 99.9 %
     Test CRC C56C0C17
     Copy CRC C56C0C17
     Track not present in AccurateRip database
     Copy OK
Track  5
     Filename C:\EACRips\05 - How I learned to hate rock-and-roll.wav
     Pre-gap length  0:00:00.20
     Peak level 100.0 %
     Extraction speed 2.1 X
     Track quality 100.0 %
     Test CRC 895F243D
     Copy CRC 895F243D
     Track not present in AccurateRip database
     Copy OK
Track  6
     Filename C:\EACRips\06 - Discoteca (new version).wav
     Peak level 99.9 %
     Extraction speed 2.0 X
     Track quality 100.0 %
     Test CRC 2C8FF545
     Copy CRC 2C8FF545
     Track not present in AccurateRip database
     Copy OK
Track  7
     Filename C:\EACRips\07 - The calm before the storm.wav
     Peak level 99.9 %
     Extraction speed 1.6 X
     Track quality 99.9 %
     Test CRC 4BAF5264
     Copy CRC 4BAF5264
     Track not present in AccurateRip database
     Copy OK
Track  8
     Filename C:\EACRips\08 - Confidential (demo for Tina).wav
     Pre-gap length  0:00:01.04
     Peak level 99.9 %
     Extraction speed 2.1 X
     Track quality 100.0 %
     Test CRC 2784CDFA
     Copy CRC 2784CDFA
     Track not present in AccurateRip database
     Copy OK
Track  9
     Filename C:\EACRips\09 - The boy who couldn't keep his clothes on.wav
     Pre-gap length  0:00:00.26
     Peak level 99.9 %
     Extraction speed 2.2 X
     Track quality 100.0 %
     Test CRC 533175B9
     Copy CRC 533175B9
     Track not present in AccurateRip database
     Copy OK
Track 10
     Filename C:\EACRips\10 - Delusions of grandeur.wav
     Pre-gap length  0:00:00.96
     Peak level 100.0 %
     Extraction speed 2.1 X
     Track quality 100.0 %
     Test CRC B0C52AF5
     Copy CRC B0C52AF5
     Track not present in AccurateRip database
     Copy OK
Track 11
     Filename C:\EACRips\11 - The view from your balcony.wav
     Pre-gap length  0:00:00.50
     Peak level 100.0 %
     Extraction speed 2.1 X
     Track quality 100.0 %
     Test CRC A8E58F5F
     Copy CRC A8E58F5F
     Track not present in AccurateRip database
     Copy OK
Track 12
     Filename C:\EACRips\12 - Disco potential.wav
     Pre-gap length  0:00:00.61
     Peak level 100.0 %
     Extraction speed 2.1 X
     Track quality 100.0 %
     Test CRC 7744F679
     Copy CRC 7744F679
     Track not present in AccurateRip database
     Copy OK
Track 13
     Filename C:\EACRips\13 - Silver age.wav
     Pre-gap length  0:00:00.82
     Peak level 100.0 %
     Extraction speed 2.0 X
     Track quality 100.0 %
     Test CRC D192011C
     Copy CRC D192011C
     Track not present in AccurateRip database
     Copy OK
Track 14
     Filename C:\EACRips\14 - Screaming.wav
     Pre-gap length  0:00:01.02
     Peak level 99.9 %
     Extraction speed 2.0 X
     Track quality 100.0 %
     Test CRC 9330C3E6
     Copy CRC 9330C3E6
     Track not present in AccurateRip database
     Copy OK
Track 15
     Filename C:\EACRips\15 - The ghost of myself.wav
     Pre-gap length  0:00:00.14
     Peak level 100.0 %
     Extraction speed 2.1 X
     Track quality 100.0 %
     Test CRC BC330691
     Copy CRC BC330691
     Track not present in AccurateRip database
     Copy OK
Track 16
     Filename C:\EACRips\16 - Casting a shadow.wav
     Pre-gap length  0:00:01.01
     Peak level 100.0 %
     Extraction speed 2.1 X
     Track quality 100.0 %
     Test CRC 95539C60
     Copy CRC 95539C60
     Track not present in AccurateRip database
     Copy OK
Track 17
     Filename C:\EACRips\17 - Lies.wav
     Pre-gap length  0:00:00.68
     Peak level 99.9 %
     Extraction speed 2.1 X
     Track quality 100.0 %
     Test CRC 88907AB1
     Copy CRC 88907AB1
     Track not present in AccurateRip database
     Copy OK
Track 18
     Filename C:\EACRips\18 - Sexy Northerner.wav
     Pre-gap length  0:00:00.49
     Peak level 99.9 %
     Extraction speed 2.0 X
     Track quality 100.0 %
     Test CRC 1E888BC4
     Copy CRC 1E888BC4
     Track not present in AccurateRip database
     Copy OK
None of the tracks are present in the AccurateRip database
No errors occurred
End of status report
==== Log checksum DB3AED1847840746B348A8A0B7C8F8B91F76A83034969A55A4E520BB0ED84482 ====

CD2 EAC&#58;

Exact Audio Copy V1.0 beta 3 from 29. August 2011
EAC extraction logfile from 23. January 2012, 19:33
Pet Shop Boys / Format CD2
Used drive  : TSSTcorpDVD+-RW TS-H653G   Adapter: 1  ID: 0
Read mode               : Secure
Utilize accurate stream : Yes
Defeat audio cache      : Yes
Make use of C2 pointers : No
Read offset correction                      : 6
Overread into Lead-In and Lead-Out          : No
Fill up missing offset samples with silence : Yes
Delete leading and trailing silent blocks   : No
Null samples used in CRC calculations       : Yes
Used interface                              : Native Win32 interface for Win NT & 2000
Gap handling                                : Appended to previous track
Used output format              : User Defined Encoder
Selected bitrate                : 1024 kBit/s
Quality                         : High
Add ID3 tag                     : No
Command line compressor         : C:\Program Files\Exact Audio Copy\FLAC\FLAC.EXE
Additional command line options : -8 -V -T "ARTIST=%artist%" -T "TITLE=%title%" -T "ALBUM=%albumtitle%" -T "DATE=%year%" -T "TRACKNUMBER=%tracknr%" -T "GENRE=%genre%" -T "PERFORMER=%albuminterpret%" -T "COMPOSER=%composer%" %haslyrics%--tag-from-file=LYRICS="%lyricsfile%"%haslyrics% -T "ALBUMARTIST=%albumartist%" -T "ALBUM ARTIST=%albumartist%" -T "DISCNUMBER=%cdnumber%" -T "TOTALDISCS=%totalcds%" -T "TOTALTRACKS=%numtracks%" -T "COMMENT=EAC V1.0 beta 2, Secure Mode, Test & Copy, AccurateRip, FLAC -8" %source% -o %dest%
TOC of the extracted CD
     Track |   Start  |  Length  | Start sector | End sector
    ---------------------------------------------------------
        1  |  0:00.00 |  5:03.37 |         0    |    22761
        2  |  5:03.37 |  3:53.14 |     22762    |    40250
        3  |  8:56.51 |  3:26.55 |     40251    |    55755
        4  | 12:23.31 |  5:06.26 |     55756    |    78731
        5  | 17:29.57 |  3:22.69 |     78732    |    93950
        6  | 20:52.51 |  4:55.20 |     93951    |   116095
        7  | 25:47.71 |  3:51.21 |    116096    |   133441
        8  | 29:39.17 |  3:37.23 |    133442    |   149739
        9  | 33:16.40 |  3:10.23 |    149740    |   164012
       10  | 36:26.63 |  2:34.11 |    164013    |   175573
       11  | 39:00.74 |  4:10.51 |    175574    |   194374
       12  | 43:11.50 |  3:11.47 |    194375    |   208746
       13  | 46:23.22 |  3:35.29 |    208747    |   224900
       14  | 49:58.51 |  4:55.05 |    224901    |   247030
       15  | 54:53.56 |  3:39.47 |    247031    |   263502
       16  | 58:33.28 |  3:54.66 |    263503    |   281118
       17  | 62:28.19 |  4:28.47 |    281119    |   301265
       18  | 66:56.66 |  5:15.65 |    301266    |   324955
       19  | 72:12.56 |  2:51.23 |    324956    |   337803
       20  | 75:04.04 |  3:42.71 |    337804    |   354524
Track  1
     Filename C:\EACRips\01 - Always.wav
     Pre-gap length  0:00:02.00
     Peak level 100.0 %
     Extraction speed 5.1 X
     Track quality 100.0 %
     Test CRC 55CE38B1
     Copy CRC 55CE38B1
     Track not present in AccurateRip database
     Copy OK
Track  2
     Filename C:\EACRips\02 - Nightlife.wav
     Peak level 99.9 %
     Extraction speed 5.4 X
     Track quality 100.0 %
     Test CRC AE41B909
     Copy CRC AE41B909
     Track not present in AccurateRip database
     Copy OK
Track  3
     Filename C:\EACRips\03 - Searching for the face of Jesus.wav
     Peak level 99.9 %
     Extraction speed 5.7 X
     Track quality 100.0 %
     Test CRC 89A7E11C
     Copy CRC 89A7E11C
     Track not present in AccurateRip database
     Copy OK
Track  4
     Filename C:\EACRips\04 - Between two islands.wav
     Pre-gap length  0:00:01.54
     Peak level 100.0 %
     Extraction speed 6.3 X
     Track quality 100.0 %
     Test CRC 5FB8F38F
     Copy CRC 5FB8F38F
     Track not present in AccurateRip database
     Copy OK
Track  5
     Filename C:\EACRips\05 - Friendly fire.wav
     Pre-gap length  0:00:00.24
     Peak level 100.0 %
     Extraction speed 6.4 X
     Track quality 100.0 %
     Test CRC 95926991
     Copy CRC 95926991
     Track not present in AccurateRip database
     Copy OK
Track  6
     Filename C:\EACRips\06 - We're the Pet Shop Boys.wav
     Pre-gap length  0:00:00.22
     Peak level 99.6 %
     Extraction speed 7.1 X
     Track quality 100.0 %
     Test CRC F25FDAA5
     Copy CRC F25FDAA5
     Track not present in AccurateRip database
     Copy OK
Track  7
     Filename C:\EACRips\07 - Transparent.wav
     Pre-gap length  0:00:00.17
     Peak level 99.9 %
     Extraction speed 7.2 X
     Track quality 100.0 %
     Test CRC 82CC5CC6
     Copy CRC 82CC5CC6
     Track not present in AccurateRip database
     Copy OK
Track  8
     Filename C:\EACRips\08 - I didn't get where I am today.wav
     Pre-gap length  0:00:00.45
     Peak level 100.0 %
     Extraction speed 7.4 X
     Track quality 100.0 %
     Test CRC 0BFC0DE8
     Copy CRC 0BFC0DE8
     Track not present in AccurateRip database
     Copy OK
Track  9
     Filename C:\EACRips\09 - The Resurrectionist.wav
     Pre-gap length  0:00:00.22
     Peak level 100.0 %
     Extraction speed 7.4 X
     Track quality 100.0 %
     Test CRC 24FB98E0
     Copy CRC 24FB98E0
     Track not present in AccurateRip database
     Copy OK
Track 10
     Filename C:\EACRips\10 - Girls don't cry.wav
     Pre-gap length  0:00:00.49
     Peak level 99.8 %
     Extraction speed 7.3 X
     Track quality 100.0 %
     Test CRC 8CA0A3C4
     Copy CRC 8CA0A3C4
     Track not present in AccurateRip database
     Copy OK
Track 11
     Filename C:\EACRips\11 - In private (duet with Elton John).wav
     Pre-gap length  0:00:00.57
     Peak level 99.9 %
     Extraction speed 6.4 X
     Track quality 99.9 %
     Test CRC 84010DE3
     Copy CRC 84010DE3
     Track not present in AccurateRip database
     Copy OK
Track 12
     Filename C:\EACRips\12 - Blue on blue.wav
     Pre-gap length  0:00:00.01
     Peak level 99.9 %
     Extraction speed 8.1 X
     Track quality 100.0 %
     Test CRC 01B22624
     Copy CRC 01B22624
     Track not present in AccurateRip database
     Copy OK
Track 13
     Filename C:\EACRips\13 - No time for tears (7'' mix).wav
     Pre-gap length  0:00:01.40
     Peak level 100.0 %
     Extraction speed 8.4 X
     Track quality 100.0 %
     Test CRC 558BF2CE
     Copy CRC 558BF2CE
     Track not present in AccurateRip database
     Copy OK
Track 14
     Filename C:\EACRips\14 - Bright young things.wav
     Pre-gap length  0:00:00.26
     Peak level 99.9 %
     Extraction speed 9.0 X
     Track quality 100.0 %
     Test CRC 58D9C9DD
     Copy CRC 58D9C9DD
     Track not present in AccurateRip database
     Copy OK
Track 15
     Filename C:\EACRips\15 - Party song.wav
     Pre-gap length  0:00:00.04
     Peak level 100.0 %
     Extraction speed 8.8 X
     Track quality 100.0 %
     Test CRC D073A745
     Copy CRC D073A745
     Track not present in AccurateRip database
     Copy OK
Track 16
     Filename C:\EACRips\16 - We're all criminals now.wav
     Peak level 100.0 %
     Extraction speed 9.2 X
     Track quality 100.0 %
     Test CRC 1D972150
     Copy CRC 1D972150
     Track not present in AccurateRip database
     Copy OK
Track 17
     Filename C:\EACRips\17 - Gin and Jag.wav
     Pre-gap length  0:00:00.46
     Peak level 100.0 %
     Extraction speed 9.6 X
     Track quality 100.0 %
     Test CRC 69662114
     Copy CRC 69662114
     Track not present in AccurateRip database
     Copy OK
Track 18
     Filename C:\EACRips\18 - After the event.wav
     Pre-gap length  0:00:00.02
     Peak level 100.0 %
     Extraction speed 9.8 X
     Track quality 100.0 %
     Test CRC 861FEDD5
     Copy CRC 861FEDD5
     Track not present in AccurateRip database
     Copy OK
Track 19
     Filename C:\EACRips\19 - The former enfant terrible.wav
     Peak level 99.9 %
     Extraction speed 6.7 X
     Track quality 99.9 %
     Test CRC 4E30B7A3
     Copy CRC 4E30B7A3
     Track not present in AccurateRip database
     Copy OK
Track 20
     Filename C:\EACRips\20 - Up and down.wav
     Pre-gap length  0:00:00.09
     Peak level 99.9 %
     Extraction speed 9.7 X
     Track quality 100.0 %
     Test CRC 1FEC5A1D
     Copy CRC 1FEC5A1D
     Track not present in AccurateRip database
     Copy OK
None of the tracks are present in the AccurateRip database
No errors occurred
End of status report
==== Log checksum 1C824D6B01CF0215CDA638A38243A7321A7969A7CAA0F6749583559C0CCA7E7D ====
-
Яндекс.Метрика
Рейтинг@Mail.ru