VA - Pop Icons [The Mail On Sunday] (2003) [FLAC|Lossless]<Pop, Europop>

 

Создавать темы 17-Дек-2014 11:56

-VA - Pop Icons [The Mail On Sunday] (2003)- Год: 2003
Жанр: Pop, Europop
Издатель: BMG UK & Ireland {MoS013}
Страна изготовитель: UK & Ireland
Продолжительность: 00:40:57
Кодек: FLAC
Битрейт: Lossless
Трек лист:
01. Christina Aguilera – Fighter [4:10]
02. Five – When The Lights Go Out [4:10]
03. Natalie Imbruglia – Big Mistake [4:35]
04. Kylie Minogue – Did It Again [4:23]
05. Venus Hum – Montana [3:45]
06. Republica – Ready To Go [3:41]
07. Heather Small – Proud [4:30]
08. Westlife – Unbreakable [4:34]
09. Alison Limerick – Where Love Lives [3:49]
10. NSync – I Want You Back [3:20]

Отчёт ЕАС&#58;

Exact Audio Copy V1.0 beta 3 from 29. August 2011
Отчёт EAC об извлечении, выполненном 6. мая 2012, 11:39
Various / Pop Icons
Дисковод: Optiarc DVD RW AD-5280S   Adapter: 2  ID: 1
Режим чтения                 : Достоверность
Использование точного потока : Да
Отключение кэша аудио        : Да
Использование указателей C2  : Нет
Коррекция смещения при чтении                     : 48
Способность читать области Lead-in и Lead-out     : Нет
Заполнение пропущенных сэмплов тишиной            : Да
Удаление блоков с тишиной в начале и конце        : Нет
При вычислениях CRC использовались нулевые сэмплы : Да
Интерфейс                                         : Установленный внешний ASPI-интерфейс
Выходной формат : Внутренние WAV-операции
Формат сэмплов  : 44.100 Гц; 16 бит; стерео
TOC извлечённого CD
     Трек |   Старт  | Длительность | Начальный сектор | Конечный сектор
    ---------------------------------------------------------------------
       1  |  0:00.00 |    4:10.18   |           0      |      18767
       2  |  4:10.18 |    4:09.68   |       18768      |      37510
       3  |  8:20.11 |    4:34.63   |       37511      |      58123
       4  | 12:54.74 |    4:22.73   |       58124      |      77846
       5  | 17:17.72 |    3:45.34   |       77847      |      94755
       6  | 21:03.31 |    3:41.23   |       94756      |     111353
       7  | 24:44.54 |    4:29.54   |      111354      |     131582
       8  | 29:14.33 |    4:33.47   |      131583      |     152104
       9  | 33:48.05 |    3:48.59   |      152105      |     169263
      10  | 37:36.64 |    3:20.03   |      169264      |     184266
Характеристики диапазона извлечения и сообщения об ошибках
Выбранный диапазон
     Имя файла C:\rip-flacmusic.ru\Various - Pop Icons.wav
     Пиковый уровень 98.2 %
     Скорость извлечения 3.7 X
     Качество диапазона 100.0 %
     CRC теста F4751C11
     CRC копии F4751C11
     Копирование... OK
Ошибок не произошло
AccurateRip: сводка
Трек  1  : извлечено точно (доверие 14)  [5EA03BA5]  (AR v1)
Трек  2  : извлечено точно (доверие 13)  [3C4D8C4A]  (AR v1)
Трек  3  : извлечено точно (доверие 14)  [E209991D]  (AR v1)
Трек  4  : извлечено точно (доверие 13)  [DFB02CC1]  (AR v1)
Трек  5  : извлечено точно (доверие 13)  [3E9A2F06]  (AR v1)
Трек  6  : извлечено точно (доверие 14)  [F3FE00E6]  (AR v1)
Трек  7  : извлечено точно (доверие 13)  [16927555]  (AR v1)
Трек  8  : извлечено точно (доверие 12)  [0CDCCFB5]  (AR v1)
Трек  9  : извлечено точно (доверие 13)  [C93E1FBA]  (AR v1)
Трек 10  : извлечено точно (доверие 13)  [AF23FCB1]  (AR v1)
Все треки извлечены точно
Конец отчёта
==== Контрольная сумма отчёта 3D1F7F101FB3CC44B4C9725AB0F65D4CA879BB00115E63E5C251053CFAD4EEAE ====

Отчёт auCDtect Task manager&#58;

-----------------------
DON'T MODIFY THIS FILE
-----------------------
PERFORMER: auCDtect Task Manager, ver. 1.5.1RC6 build 1.5.1.7
Copyright (c) 2008-2010 y-soft. All rights reserved
http://y-soft.org
ANALYZER: auCDtect: CD records authenticity detector, version 0.8.2
Copyright (c) 2004 Oleg Berngardt. All rights reserved.
Copyright (c) 2004 Alexander Djourik. All rights reserved.
FILE: Various - Pop Icons.flac
  Size: 299329794 Hash: 493AE1A3DC921A8E0BAAD94675B6A99C Accuracy: -m0
  Conclusion: CDDA 99%
  Signature: 6E05575D9146385F61C589DC0778E55D9831E9BC
Время раздачи: 24/7
Яндекс.Метрика
Рейтинг@Mail.ru