[ Сегодня на трекере фрилич! Идет свободное скачивание без начисления Download ]

Morten Harket - Out Of My Hands (2012) /2012, Compass Point/ [FLAC|Lossless]<Pop/Synthpop>

 

Создавать темы 17-Дек-2014 11:56

-Morten Harket - Out Of My Hands (2012)-
Год: 2012
Издание: Compass Point/Universal
Каталог№: 2798711
Жанр: Pop/Synthpop
Продолжительность: 00:38:20
Источник: Интернет
Сканы: Полный комплект
Кодек: FLAC
Тип рипа: Image+.cue
Битрейт: Lossless-Трек лист:
01. Scared Of Heights (3:25)
02. Keep The Sun Away (3:22)
03. Lightning (3:56)
04. I'm The One (3:24)
05. Quiet (4:23)
06. Burn Money Burn (3:53)
07. When I Reached The Moon (3:53)
08. Listening (4:55)
09. Just Believe It (3:31)
10. Out Of My Hands (3:38)

Содержание индексной карты&#58;

REM GENRE Pop
REM DATE 2012
REM DISCID 7E08FB0A
REM COMMENT "ExactAudioCopy v1.0b3"
CATALOG 0602527987118
PERFORMER "Morten Harket"
TITLE "Out Of My Hands"
FILE "Morten Harket - Out Of My Hands.flac" WAVE
  TRACK 01 AUDIO
    TITLE "Scared Of Heights"
    PERFORMER "Morten Harket"
    ISRC DEUM71200479
    INDEX 01 00:00:00
  TRACK 02 AUDIO
    TITLE "Keep The Sun Away"
    PERFORMER "Morten Harket"
    ISRC DEUM71200619
    INDEX 00 03:22:55
    INDEX 01 03:24:55
  TRACK 03 AUDIO
    TITLE "Lightning"
    PERFORMER "Morten Harket"
    ISRC DEUM71200478
    INDEX 00 06:44:26
    INDEX 01 06:46:26
  TRACK 04 AUDIO
    TITLE "I'm The One"
    PERFORMER "Morten Harket"
    ISRC DEUM71200480
    INDEX 00 10:39:25
    INDEX 01 10:42:25
  TRACK 05 AUDIO
    TITLE "Quiet"
    PERFORMER "Morten Harket"
    ISRC DEUM71200483
    INDEX 00 14:04:58
    INDEX 01 14:06:58
  TRACK 06 AUDIO
    TITLE "Burn Money Burn"
    PERFORMER "Morten Harket"
    ISRC DEUM71200481
    INDEX 00 18:26:45
    INDEX 01 18:29:45
  TRACK 07 AUDIO
    TITLE "When I Reached The Moon"
    PERFORMER "Morten Harket"
    ISRC DEUM71200620
    INDEX 00 22:22:07
    INDEX 01 22:23:07
  TRACK 08 AUDIO
    TITLE "Listening"
    PERFORMER "Morten Harket"
    ISRC DEUM71200482
    INDEX 00 26:13:60
    INDEX 01 26:15:60
  TRACK 09 AUDIO
    TITLE "Just Believe It"
    PERFORMER "Morten Harket"
    ISRC DEUM71200622
    INDEX 00 31:09:05
    INDEX 01 31:11:05
  TRACK 10 AUDIO
    TITLE "Out Of My Hands"
    PERFORMER "Morten Harket"
    ISRC DEUM71200558
    INDEX 00 34:39:31
    INDEX 01 34:42:31

Отчёт EAC&#58;

Exact Audio Copy V1.0 beta 3 from 29. August 2011
EAC extraction logfile from 14. April 2012, 14:54
Morten Harket / Out Of My Hands
Used drive  : Optiarc BD RW BD-5300S   Adapter: 3  ID: 0
Read mode               : Secure
Utilize accurate stream : Yes
Defeat audio cache      : Yes
Make use of C2 pointers : No
Read offset correction                      : 6
Overread into Lead-In and Lead-Out          : No
Fill up missing offset samples with silence : Yes
Delete leading and trailing silent blocks   : No
Null samples used in CRC calculations       : Yes
Used interface                              : Installed external ASPI interface
Used output format              : User Defined Encoder
Selected bitrate                : 1024 kBit/s
Quality                         : High
Add ID3 tag                     : No
Command line compressor         : C:\Program Files (x86)\Exact Audio Copy\Flac\flac.exe
Additional command line options : -8 -V -T "Date=%year%" -T "Genre=%genre%" -T "COMMENT=ripped by bvstudio®" %source%
TOC of the extracted CD
     Track |   Start  |  Length  | Start sector | End sector
    ---------------------------------------------------------
        1  |  0:00.00 |  3:24.55 |         0    |    15354
        2  |  3:24.55 |  3:21.46 |     15355    |    30475
        3  |  6:46.26 |  3:55.74 |     30476    |    48174
        4  | 10:42.25 |  3:24.33 |     48175    |    63507
        5  | 14:06.58 |  4:22.62 |     63508    |    83219
        6  | 18:29.45 |  3:53.37 |     83220    |   100731
        7  | 22:23.07 |  3:52.53 |    100732    |   118184
        8  | 26:15.60 |  4:55.20 |    118185    |   140329
        9  | 31:11.05 |  3:31.26 |    140330    |   156180
       10  | 34:42.31 |  3:37.43 |    156181    |   172498
Range status and errors
Selected range
     Filename F:\Morten Harket - Out Of My Hands - 2012\Morten Harket - Out Of My Hands.wav
     Peak level 100.0 %
     Extraction speed 8.1 X
     Range quality 100.0 %
     Test CRC 860CC87B
     Copy CRC 860CC87B
     Copy OK
No errors occurred
AccurateRip summary
Track  1  not present in database
Track  2  not present in database
Track  3  not present in database
Track  4  not present in database
Track  5  not present in database
Track  6  not present in database
Track  7  not present in database
Track  8  not present in database
Track  9  not present in database
Track 10  not present in database
None of the tracks are present in the AccurateRip database
End of status report
==== Log checksum E564735626E144357A9C4735A989DF9D8980429FC01A67E5DE23ECAFD2C7A0DA ====

Отчёт auCDtect Task Manager&#58;

-----------------------
DON'T MODIFY THIS FILE
-----------------------
PERFORMER: auCDtect Task Manager, ver. 1.5.1RC4 build 1.5.1.5
Copyright (c) 2008-2010 y-soft. All rights reserved
http://y-soft.org
ANALYZER: auCDtect: CD records authenticity detector, version 0.8.2
Copyright (c) 2004 Oleg Berngardt. All rights reserved.
Copyright (c) 2004 Alexander Djourik. All rights reserved.
FILE: Morten Harket - Out Of My Hands.flac
  Size: 269320298 Hash: B824D9B5496D13E487D5F9780D29F3B5 Accuracy: -m0
  Conclusion: CDDA 100%
  Signature: 6C83CB9FA5938B6E7770775264EA6A9466EF89B0
-
Яндекс.Метрика
Рейтинг@Mail.ru