[ Сегодня на трекере фрилич! Идет свободное скачивание без начисления Download ]

Carly Rae Jepsen - Kiss (Deluxe Edition) (2012) [FLAC (tracks+cue)|Lossless]<Pop, Dance>

 

Создавать темы 17-Дек-2014 11:56

-Carly Rae Jepsen - Kiss (Deluxe Edition) (2012)- Лейбл: 604 Records
Каталог: B0017364-02
Год: 2012
Жанр: Pop, Dance
Продолжительность: 00:56:40
Кодек: FLAC (tracks+cue)
Битрейт: Lossless
Трек лист:
01. Tiny Little Bows
02. This Kiss
03. Call Me Maybe
04. Curiosity
05. Good Time (with Owl City)
06. More Than a Memory
07. Turn Me Up
08. Hurt So Good
09. Beautiful (with Justin Bieber)
10. Tonight I'm Getting Over You
11. Guitar String / Wedding Ring
12. Your Heart Is A Muscle)
13. Drive
14. Wrong Feels So Right
15. Sweetie
16. I Know You Have A Girlfriend

Отчёт ЕАС&#58;

Exact Audio Copy V1.0 beta 3 from 29. August 2011
EAC extraction logfile from 18. September 2012, 23:07
Carly Rae Jepsen / Kiss (Deluxe Edition)
Used drive  : HL-DT-STBDDVDRW CT30N   Adapter: 0  ID: 1
Read mode               : Secure
Utilize accurate stream : Yes
Defeat audio cache      : Yes
Make use of C2 pointers : No
Read offset correction                      : 102
Overread into Lead-In and Lead-Out          : No
Fill up missing offset samples with silence : Yes
Delete leading and trailing silent blocks   : No
Null samples used in CRC calculations       : Yes
Used interface                              : Native Win32 interface for Win NT & 2000
Gap handling                                : Appended to previous track
Used output format              : User Defined Encoder
Selected bitrate                : 768 kBit/s
Quality                         : High
Add ID3 tag                     : No
Command line compressor         : C:\Program Files (x86)\Exact Audio Copy\Flac\flac.exe
Additional command line options : -8 -V -T "ARTIST=%artist%" -T "TITLE=%title%" -T "ALBUM=%albumtitle%" -T "DATE=%year%" -T "TRACKNUMBER=%tracknr%" -T "GENRE=%genre%" -T "PERFORMER=%albuminterpret%" -T "COMPOSER=%composer%" %haslyrics%--tag-from-file=LYRICS="%lyricsfile%"%haslyrics% -T "ALBUMARTIST=%albumartist%" -T "ALBUM ARTIST=%albumartist%" -T "DISCNUMBER=%cdnumber%" -T "TOTALDISCS=%totalcds%" -T "TOTALTRACKS=%numtracks%" -T "COMMENT=EAC V1.0 beta 2, Secure Mode, Test & Copy, AccurateRip, FLAC -8" %source% -o %dest%
TOC of the extracted CD
     Track |   Start  |  Length  | Start sector | End sector
    ---------------------------------------------------------
        1  |  0:00.00 |  3:21.64 |         0    |    15138
        2  |  3:21.64 |  3:50.61 |     15139    |    32449
        3  |  7:12.50 |  3:13.64 |     32450    |    46988
        4  | 10:26.39 |  3:35.35 |     46989    |    63148
        5  | 14:01.74 |  3:26.31 |     63149    |    78629
        6  | 17:28.30 |  4:03.01 |     78630    |    96855
        7  | 21:31.31 |  3:46.02 |     96856    |   113807
        8  | 25:17.33 |  3:11.02 |    113808    |   128134
        9  | 28:28.35 |  3:18.48 |    128135    |   143032
       10  | 31:47.08 |  3:39.72 |    143033    |   159529
       11  | 35:27.05 |  3:27.74 |    159530    |   175128
       12  | 38:55.04 |  3:50.37 |    175129    |   192415
       13  | 42:45.41 |  2:59.51 |    192416    |   205891
       14  | 45:45.17 |  4:17.59 |    205892    |   225225
       15  | 50:03.01 |  3:40.04 |    225226    |   241729
       16  | 53:43.05 |  3:05.21 |    241730    |   255625
Track  1
     Filename C:\Carly Rae Jepsen - 2012 - Kiss (Deluxe Edition) - FLAC\01 Tiny Little Bows.wav
     Pre-gap length  0:00:02.00
     Peak level 99.8 %
     Extraction speed 0.9 X
     Track quality 99.9 %
     Test CRC 8093DC3F
     Copy CRC 8093DC3F
     Track not present in AccurateRip database
     Copy OK
Track  2
     Filename C:\Carly Rae Jepsen - 2012 - Kiss (Deluxe Edition) - FLAC\02 This Kiss.wav
     Pre-gap length  0:00:00.29
     Peak level 82.2 %
     Extraction speed 1.2 X
     Track quality 100.0 %
     Test CRC 2872E6E0
     Copy CRC 2872E6E0
     Track not present in AccurateRip database
     Copy OK
Track  3
     Filename C:\Carly Rae Jepsen - 2012 - Kiss (Deluxe Edition) - FLAC\03 Call Me Maybe.wav
     Pre-gap length  0:00:01.94
     Peak level 100.0 %
     Extraction speed 1.1 X
     Track quality 99.9 %
     Test CRC F0109F3F
     Copy CRC F0109F3F
     Track not present in AccurateRip database
     Copy OK
Track  4
     Filename C:\Carly Rae Jepsen - 2012 - Kiss (Deluxe Edition) - FLAC\04 Curiosity.wav
     Pre-gap length  0:00:00.45
     Peak level 99.8 %
     Extraction speed 1.2 X
     Track quality 99.9 %
     Test CRC 4472626B
     Copy CRC 4472626B
     Track not present in AccurateRip database
     Copy OK
Track  5
     Filename C:\Carly Rae Jepsen - 2012 - Kiss (Deluxe Edition) - FLAC\05 Good Time (with Owl City).wav
     Pre-gap length  0:00:02.34
     Peak level 99.8 %
     Extraction speed 1.4 X
     Track quality 100.0 %
     Test CRC 730213E1
     Copy CRC 730213E1
     Track not present in AccurateRip database
     Copy OK
Track  6
     Filename C:\Carly Rae Jepsen - 2012 - Kiss (Deluxe Edition) - FLAC\06 More Than a Memory.wav
     Pre-gap length  0:00:01.29
     Peak level 97.8 %
     Extraction speed 1.4 X
     Track quality 99.9 %
     Test CRC 65200E26
     Copy CRC 65200E26
     Track not present in AccurateRip database
     Copy OK
Track  7
     Filename C:\Carly Rae Jepsen - 2012 - Kiss (Deluxe Edition) - FLAC\07 Turn Me Up.wav
     Pre-gap length  0:00:00.98
     Peak level 100.0 %
     Extraction speed 1.6 X
     Track quality 100.0 %
     Test CRC 6FDA7936
     Copy CRC 6FDA7936
     Track not present in AccurateRip database
     Copy OK
Track  8
     Filename C:\Carly Rae Jepsen - 2012 - Kiss (Deluxe Edition) - FLAC\08 Hurt So Good.wav
     Pre-gap length  0:00:01.90
     Peak level 99.8 %
     Extraction speed 1.7 X
     Track quality 100.0 %
     Test CRC 03019E17
     Copy CRC 03019E17
     Track not present in AccurateRip database
     Copy OK
Track  9
     Filename C:\Carly Rae Jepsen - 2012 - Kiss (Deluxe Edition) - FLAC\09 Beautiful (with Justin Bieber).wav
     Pre-gap length  0:00:02.18
     Peak level 99.9 %
     Extraction speed 1.8 X
     Track quality 100.0 %
     Test CRC 6FFC8D65
     Copy CRC 6FFC8D65
     Track not present in AccurateRip database
     Copy OK
Track 10
     Filename C:\Carly Rae Jepsen - 2012 - Kiss (Deluxe Edition) - FLAC\10 Tonight I'm Getting Over You.wav
     Pre-gap length  0:00:00.65
     Peak level 99.8 %
     Extraction speed 1.8 X
     Track quality 100.0 %
     Test CRC 02A7D2F4
     Copy CRC 02A7D2F4
     Track not present in AccurateRip database
     Copy OK
Track 11
     Filename C:\Carly Rae Jepsen - 2012 - Kiss (Deluxe Edition) - FLAC\11 Guitar String , Wedding Ring.wav
     Pre-gap length  0:00:00.74
     Peak level 100.0 %
     Extraction speed 1.9 X
     Track quality 100.0 %
     Test CRC 46B54CBC
     Copy CRC 46B54CBC
     Track not present in AccurateRip database
     Copy OK
Track 12
     Filename C:\Carly Rae Jepsen - 2012 - Kiss (Deluxe Edition) - FLAC\12 Your Heart Is a Muscle.wav
     Pre-gap length  0:00:01.24
     Peak level 99.8 %
     Extraction speed 2.0 X
     Track quality 100.0 %
     Test CRC 68EE9BA3
     Copy CRC 68EE9BA3
     Track not present in AccurateRip database
     Copy OK
Track 13
     Filename C:\Carly Rae Jepsen - 2012 - Kiss (Deluxe Edition) - FLAC\13 Drive.wav
     Pre-gap length  0:00:00.86
     Peak level 99.8 %
     Extraction speed 2.0 X
     Track quality 100.0 %
     Test CRC 414415CA
     Copy CRC 414415CA
     Track not present in AccurateRip database
     Copy OK
Track 14
     Filename C:\Carly Rae Jepsen - 2012 - Kiss (Deluxe Edition) - FLAC\14 Wrong Feels So Right.wav
     Pre-gap length  0:00:00.57
     Peak level 99.8 %
     Extraction speed 2.2 X
     Track quality 100.0 %
     Test CRC C8432708
     Copy CRC C8432708
     Track not present in AccurateRip database
     Copy OK
Track 15
     Filename C:\Carly Rae Jepsen - 2012 - Kiss (Deluxe Edition) - FLAC\15 Sweetie.wav
     Pre-gap length  0:00:00.18
     Peak level 99.8 %
     Extraction speed 2.2 X
     Track quality 100.0 %
     Test CRC D3044D6F
     Copy CRC D3044D6F
     Track not present in AccurateRip database
     Copy OK
Track 16
     Filename C:\Carly Rae Jepsen - 2012 - Kiss (Deluxe Edition) - FLAC\16 I Know You Have a Girlfriend.wav
     Pre-gap length  0:00:01.81
     Peak level 99.8 %
     Extraction speed 1.8 X
     Track quality 99.9 %
     Test CRC 8F49D14C
     Copy CRC 8F49D14C
     Track not present in AccurateRip database
     Copy OK
None of the tracks are present in the AccurateRip database
No errors occurred
End of status report
---- CUETools DB Plugin V2.1.3
[CTDB TOCID: ID1yYXux8z2qA7fqUOIbcgPKRIw-] disk not present in database, Submit result: ID1yYXux8z2qA7fqUOIbcgPKRIw- has been uploaded
==== Log checksum 449624F68BE8FF7382B189C2BE1EF11FFCD82330EBEB105224F00C864783237E ====

Отчёт auCDtect Task manager&#58;

-----------------------
DON'T MODIFY THIS FILE
-----------------------
PERFORMER: auCDtect Task Manager, ver. 1.5.1RC4 build 1.5.1.5
Copyright (c) 2008-2010 y-soft. All rights reserved
http://y-soft.org
ANALYZER: auCDtect: CD records authenticity detector, version 0.8.2
Copyright (c) 2004 Oleg Berngardt. All rights reserved.
Copyright (c) 2004 Alexander Djourik. All rights reserved.
FILE: 16 I Know You Have a Girlfriend.flac
  Size: 23344949 Hash: 5F229C2AD4F2C99C6086DE592D0CD314 Accuracy: -m0
  Conclusion: CDDA 100%
  Signature: 73650C6DB47E6DC6A539FF59F0EA8528043CEB1E
FILE: 15 Sweetie.flac
  Size: 28257105 Hash: 6ECCDFBCFBFB180C03EC6A366E4CE3AC Accuracy: -m0
  Conclusion: CDDA 100%
  Signature: EEF9ABF080536465E92A2B9F8EEC397E71F2C837
FILE: 14 Wrong Feels So Right.flac
  Size: 35052476 Hash: ABDFC803FF2BE78C96F51C33BFE0CE6B Accuracy: -m0
  Conclusion: CDDA 100%
  Signature: 5E286E7D06E3B2A8BE624B3B21B5051228570F1A
FILE: 13 Drive.flac
  Size: 23718914 Hash: D7F982F54D34DC6AF9278CE3E49F57E1 Accuracy: -m0
  Conclusion: CDDA 100%
  Signature: 5E1421BC83D7CC96C678B632C6EAF22BB47D0C29
FILE: 12 Your Heart Is a Muscle.flac
  Size: 27148080 Hash: FF6E2488E95C2E666C43A4EAA3F0BE63 Accuracy: -m0
  Conclusion: CDDA 100%
  Signature: CB03101B9BB48CD67C354BC148825FA2B9070CE4
FILE: 11 Guitar String , Wedding Ring.flac
  Size: 26332569 Hash: 26F7F509AEC46894339A96E8F3F25721 Accuracy: -m0
  Conclusion: CDDA 99%
  Signature: 42EAF646D63FFAB9CCB85BD4ECE027B839A3AA78
FILE: 10 Tonight I'm Getting Over You.flac
  Size: 27769922 Hash: 5A54ECEB2FE36C88D3D6BBCF2ACA18AD Accuracy: -m0
  Conclusion: CDDA 100%
  Signature: DEEA2371EAC45B22B96AFCD0822EB3E055BC7C3F
FILE: 09 Beautiful (with Justin Bieber).flac
  Size: 22436357 Hash: 44BDD61D5947B542B4A7E27565C29471 Accuracy: -m0
  Conclusion: CDDA 100%
  Signature: 5B737738B39792072FEC86132466678D3FF9D61E
FILE: 08 Hurt So Good.flac
  Size: 26164018 Hash: 1FADDA9616BA08C54A3F87CD9F4A59D0 Accuracy: -m0
  Conclusion: CDDA 100%
  Signature: 57034BA0293AA6999261363874E64D2E24764D35
FILE: 07 Turn Me Up.flac
  Size: 28721341 Hash: AEAABC5261278C2E6C4EAA03B767F940 Accuracy: -m0
  Conclusion: CDDA 100%
  Signature: 4FEA7870BE306622D5FEA461D648A5AB6DC605E1
FILE: 06 More Than a Memory.flac
  Size: 31688378 Hash: 517D19A4CD92928E5B61D25EC56F6634 Accuracy: -m0
  Conclusion: CDDA 100%
  Signature: 266DB5969E1B5D6D95D38C3D9CD51D6423D4BF6C
FILE: 05 Good Time (with Owl City).flac
  Size: 26614054 Hash: 989C4FAC41DDFD9B53AF4D02AC18D641 Accuracy: -m0
  Conclusion: CDDA 100%
  Signature: 2DA32535E3DC62A5A8D2402E3AB1309803F9FD4B
FILE: 04 Curiosity.flac
  Size: 27802143 Hash: 58266B528F2DA56CB91C454426D612D6 Accuracy: -m0
  Conclusion: CDDA 100%
  Signature: B2F65A3A3061FC2CD94ACBD0D6AF787C870655B3
FILE: 03 Call Me Maybe.flac
  Size: 23974985 Hash: C6389504CE494F677CA7484BF77E06FD Accuracy: -m0
  Conclusion: CDDA 100%
  Signature: 88D87062FEE1D1CD423A35CB078F21A50F51BB45
FILE: 02 This Kiss.flac
  Size: 33007950 Hash: D6F7E2153A5E046F74818ED7E2EDD5B4 Accuracy: -m0
  Conclusion: CDDA 100%
  Signature: A0264B8613B5E3AC307E935DBCDD16204DB8BEAE
FILE: 01 Tiny Little Bows.flac
  Size: 27157413 Hash: 2E6C6345A34FB780F97E84739BDD2910 Accuracy: -m0
  Conclusion: CDDA 100%
  Signature: 3FC046DFA2CBB6DA71D72CDDA8F21679BD154439
Спасибо evil_silence
Время раздачи: С 11:30 до 18:00 и с 20:00 до 08:00 Мск., до 5-ти скачавших
Яндекс.Метрика
Рейтинг@Mail.ru