[ Сегодня на трекере фрилич! Идет свободное скачивание без начисления Download ]

Medina - Forever (Special Edition) (2012) [FLAC|Lossless]<Europop, Synth-pop>

 

Создавать темы 17-Дек-2014 11:54

-Medina - Forever (Special Edition) (2012)-
Год: 2012
Жанр: Europop, Synth-pop
Продолжительность: 01:51:11
Лейбл: EMI
Каталог №: 50999 704260 2 1
Тип рипа: tracks+.cue
Сканы: Комплект
Кодек: FLAC
Битрейт: Lossless-CD1:


Треклист:
01. Forever (3:32)
02. Butterflies (3:42)
03. Scars (3:39)
04. Happening (4:03)
05. Boring (4:03)
06. Hotels (3:30)
07. Good To You (4:02)
08. Close To Nothing (3:52)
09. Keep Me Hangin' (3:20)
10. Black Lights (3:45)
11. Waiting For Love (4:00)
12. Like You Hurt Me (3:41)
13. Threesome (3:41)
Продолжительность: 00:48:50

Отчёт ЕАС&#58;

Exact Audio Copy V1.0 beta 3 from 29. August 2011
EAC extraction logfile from 12. October 2012, 18:53
Medina / Forever
Used drive  : Optiarc DVD RW AD-7200S   Adapter: 0  ID: 0
Read mode               : Secure
Utilize accurate stream : Yes
Defeat audio cache      : Yes
Make use of C2 pointers : No
Read offset correction                      : 48
Overread into Lead-In and Lead-Out          : No
Fill up missing offset samples with silence : Yes
Delete leading and trailing silent blocks   : No
Null samples used in CRC calculations       : Yes
Used interface                              : Native Win32 interface for Win NT & 2000
Gap handling                                : Appended to previous track
Used output format              : User Defined Encoder
Selected bitrate                : 896 kBit/s
Quality                         : High
Add ID3 tag                     : No
Command line compressor         : C:\Program Files (x86)\Exact Audio Copy\Flac\flac.exe
Additional command line options : -V -8 -T "Artist=%artist%" -T "Title=%title%" -T "Album=%albumtitle%" -T "Date=%year%" -T "Tracknumber=%tracknr%" -T "Genre=%genre%" -T "Comment=ripped by alxsha" %source%
TOC of the extracted CD
     Track |   Start  |  Length  | Start sector | End sector
    ---------------------------------------------------------
        1  |  0:00.00 |  3:32.19 |         0    |    15918
        2  |  3:32.19 |  3:42.03 |     15919    |    32571
        3  |  7:14.22 |  3:39.65 |     32572    |    49061
        4  | 10:54.12 |  4:03.73 |     49062    |    67359
        5  | 14:58.10 |  4:03.36 |     67360    |    85620
        6  | 19:01.46 |  3:30.05 |     85621    |   101375
        7  | 22:31.51 |  4:02.48 |    101376    |   119573
        8  | 26:34.24 |  3:52.41 |    119574    |   137014
        9  | 30:26.65 |  3:20.49 |    137015    |   152063
       10  | 33:47.39 |  3:45.34 |    152064    |   168972
       11  | 37:32.73 |  4:00.41 |    168973    |   187013
       12  | 41:33.39 |  3:41.06 |    187014    |   203594
       13  | 45:14.45 |  3:41.39 |    203595    |   220208
Track  1
     Filename D:\1-01. Forever.wav
     Pre-gap length  0:00:02.00
     Peak level 93.2 %
     Extraction speed 2.3 X
     Track quality 100.0 %
     Test CRC 3DF9F20D
     Copy CRC 3DF9F20D
     Accurately ripped (confidence 2)  [76D2B368]  (AR v1)
     Copy OK
Track  2
     Filename D:\1-02. Butterflies.wav
     Pre-gap length  0:00:01.45
     Peak level 98.7 %
     Extraction speed 2.0 X
     Track quality 99.9 %
     Test CRC F5228789
     Copy CRC F5228789
     Accurately ripped (confidence 2)  [ACFCCC75]  (AR v1)
     Copy OK
Track  3
     Filename D:\1-03. Scars.wav
     Pre-gap length  0:00:00.59
     Peak level 98.6 %
     Extraction speed 2.8 X
     Track quality 100.0 %
     Test CRC 09E4F54C
     Copy CRC 09E4F54C
     Accurately ripped (confidence 2)  [F98E8E0C]  (AR v1)
     Copy OK
Track  4
     Filename D:\1-04. Happening.wav
     Pre-gap length  0:00:01.32
     Peak level 99.5 %
     Extraction speed 3.0 X
     Track quality 100.0 %
     Test CRC 668C790E
     Copy CRC 668C790E
     Accurately ripped (confidence 2)  [C9E4E28B]  (AR v1)
     Copy OK
Track  5
     Filename D:\1-05. Boring.wav
     Pre-gap length  0:00:01.34
     Peak level 98.6 %
     Extraction speed 3.3 X
     Track quality 100.0 %
     Test CRC A56B34DD
     Copy CRC A56B34DD
     Accurately ripped (confidence 2)  [14C56F1D]  (AR v1)
     Copy OK
Track  6
     Filename D:\1-06. Hotels.wav
     Pre-gap length  0:00:01.52
     Peak level 98.7 %
     Extraction speed 3.4 X
     Track quality 100.0 %
     Test CRC BE9FD7A2
     Copy CRC BE9FD7A2
     Accurately ripped (confidence 2)  [C98F6736]  (AR v1)
     Copy OK
Track  7
     Filename D:\1-07. Good To You.wav
     Pre-gap length  0:00:01.44
     Peak level 98.7 %
     Extraction speed 3.6 X
     Track quality 100.0 %
     Test CRC 22972805
     Copy CRC 22972805
     Accurately ripped (confidence 2)  [86B8E52C]  (AR v1)
     Copy OK
Track  8
     Filename D:\1-08. Close To Nothing.wav
     Pre-gap length  0:00:01.56
     Peak level 98.7 %
     Extraction speed 3.8 X
     Track quality 100.0 %
     Test CRC D7287938
     Copy CRC D7287938
     Accurately ripped (confidence 2)  [1F8CC12C]  (AR v1)
     Copy OK
Track  9
     Filename D:\1-09. Keep Me Hangin'.wav
     Pre-gap length  0:00:01.60
     Peak level 98.7 %
     Extraction speed 3.8 X
     Track quality 100.0 %
     Test CRC 4060AA96
     Copy CRC 4060AA96
     Accurately ripped (confidence 2)  [39092389]  (AR v1)
     Copy OK
Track 10
     Filename D:\1-10. Black Lights.wav
     Pre-gap length  0:00:01.51
     Peak level 98.4 %
     Extraction speed 3.6 X
     Track quality 99.9 %
     Test CRC 80F085C7
     Copy CRC 80F085C7
     Accurately ripped (confidence 2)  [CC059E9E]  (AR v1)
     Copy OK
Track 11
     Filename D:\1-11. Waiting For Love.wav
     Pre-gap length  0:00:01.58
     Peak level 97.2 %
     Extraction speed 4.2 X
     Track quality 100.0 %
     Test CRC D3D9EF7A
     Copy CRC D3D9EF7A
     Accurately ripped (confidence 2)  [9E9529F6]  (AR v1)
     Copy OK
Track 12
     Filename D:\1-12. Like You Hurt Me.wav
     Pre-gap length  0:00:01.50
     Peak level 98.7 %
     Extraction speed 3.8 X
     Track quality 99.9 %
     Test CRC 817B0B67
     Copy CRC 817B0B67
     Accurately ripped (confidence 2)  [D94EB081]  (AR v1)
     Copy OK
Track 13
     Filename D:\1-13. Threesome.wav
     Pre-gap length  0:00:01.73
     Peak level 99.8 %
     Extraction speed 4.4 X
     Track quality 100.0 %
     Test CRC AC4E9307
     Copy CRC AC4E9307
     Accurately ripped (confidence 2)  [94DABF69]  (AR v1)
     Copy OK
All tracks accurately ripped
No errors occurred
End of status report
==== Log checksum 945E3939DFB9FE48C673D58AC6FBD1FCA3899BE5EC10ACE6B6336C89CFA68362 ====

Отчёт auCDtect Task manager&#58;

-----------------------
DON'T MODIFY THIS FILE
-----------------------
PERFORMER: auCDtect Task Manager, ver. 1.5.1RC6 build 1.5.1.7
Copyright (c) 2008-2010 y-soft. All rights reserved
http://y-soft.org
ANALYZER: auCDtect: CD records authenticity detector, version 0.8.2
Copyright (c) 2004 Oleg Berngardt. All rights reserved.
Copyright (c) 2004 Alexander Djourik. All rights reserved.
FILE: 1-13. Threesome.flac
  Size: 26727252 Hash: 92985A203E65BC023D4E889B843DD47B Accuracy: -m0
  Conclusion: CDDA 100%
  Signature: D479234CD6866422451112F70E0FA40AC9DCCE14
FILE: 1-12. Like You Hurt Me.flac
  Size: 25632078 Hash: 1D98F61B5B567E78EC52F3D8BE77879E Accuracy: -m0
  Conclusion: CDDA 100%
  Signature: 8288A07C78C2F4FFC3A3D28F7D259A45D0618068
FILE: 1-11. Waiting For Love.flac
  Size: 30971641 Hash: 5F2D5B29ADF70F62B327192CB370C294 Accuracy: -m0
  Conclusion: CDDA 100%
  Signature: AF1BB5D9D7B5050DCA7F5B60B1C33AF5CD44289B
FILE: 1-10. Black Lights.flac
  Size: 28132058 Hash: FF7034FD1A764104910D5D48A94BFBE0 Accuracy: -m0
  Conclusion: CDDA 100%
  Signature: 80FDDF9D92FA7210B9E99B161041EEFE9A8B2B7C
FILE: 1-09. Keep Me Hangin'.flac
  Size: 26527312 Hash: 9112AB14647861B7B710BE1951655AD3 Accuracy: -m0
  Conclusion: CDDA 100%
  Signature: 1895794A5B8ACBF69086584CF50F90B686DE3105
FILE: 1-08. Close To Nothing.flac
  Size: 29179379 Hash: 7AAFFCD0AAB95D772BEB335A4C7C86BA Accuracy: -m0
  Conclusion: CDDA 100%
  Signature: 5BDC6DC758960733007B1E344C42FEBD0A7E394C
FILE: 1-07. Good To You.flac
  Size: 30546293 Hash: CD594638DC4843863DDEBB59440B626B Accuracy: -m0
  Conclusion: CDDA 100%
  Signature: 1EA4900FA600279EC0DEBA452B919657269723B0
FILE: 1-06. Hotels.flac
  Size: 26367519 Hash: 63ACFE8844B0F8F09851E1D5AEEC7813 Accuracy: -m0
  Conclusion: CDDA 100%
  Signature: 76D39275F0C7D0D18A91448B59D9E28F13E7A630
FILE: 1-05. Boring.flac
  Size: 31970539 Hash: B7DF23513E6568CD18CCBDFA32433DA5 Accuracy: -m0
  Conclusion: CDDA 100%
  Signature: 0958135B7B3B10842E48A4DC776DDC708B81531A
FILE: 1-04. Happening.flac
  Size: 30815912 Hash: C142448DCE7E65A6288414811EA4D033 Accuracy: -m0
  Conclusion: CDDA 100%
  Signature: C0C305DF0390A9C354C140697F342DC793D9B375
FILE: 1-03. Scars.flac
  Size: 27921705 Hash: A585385263D611F154F511688017C8E8 Accuracy: -m0
  Conclusion: CDDA 100%
  Signature: 317BA104F569DD3ECA0878593588F65F1B057A71
FILE: 1-02. Butterflies.flac
  Size: 31246565 Hash: 266CF6E880441F8348025D080FCD4C27 Accuracy: -m0
  Conclusion: CDDA 100%
  Signature: BE83C1F96D7D8FA94F8D3D589387A9834238ACB8
FILE: 1-01. Forever.flac
  Size: 27819135 Hash: E4073E87A643FC0D028AE92478BF14A1 Accuracy: -m0
  Conclusion: CDDA 100%
  Signature: 2243FD9AB92CF91B8BFA40910E1A9B7D6D71C233
-CD2:


Трек лист:
01. Synd For Dig (3:29)
02. For Altid (3:33)
03. Vend Om (3:50)
04. Kl. 10 (4:04)
05. Lyser I Mørke (3:47)
06. 12 Dage (4:21)
07. Gode Mennesker (4:01)
08. Ejer Hele Verden (3:25)
09. Har Du Det Ligesom Mig (4:56)
10. Lykkepille (3:57)
11. Forever (Jean Elan Remix) (6:43)
12. Forever (DJ Tonka's True House Mix) (4:32)
13. Forever (Tagteam Terror Remix) (4:38)
14. Forever (Svenstrup & Vendelboe Remix) (7:05)
Продолжительность: 01:02:21

Отчёт ЕАС&#58;

Exact Audio Copy V1.0 beta 3 from 29. August 2011
EAC extraction logfile from 12. October 2012, 20:11
Medina / Forever (Gold Edition)
Used drive  : Optiarc DVD RW AD-7200S   Adapter: 0  ID: 0
Read mode               : Secure
Utilize accurate stream : Yes
Defeat audio cache      : Yes
Make use of C2 pointers : No
Read offset correction                      : 48
Overread into Lead-In and Lead-Out          : No
Fill up missing offset samples with silence : Yes
Delete leading and trailing silent blocks   : No
Null samples used in CRC calculations       : Yes
Used interface                              : Native Win32 interface for Win NT & 2000
Gap handling                                : Appended to previous track
Used output format              : User Defined Encoder
Selected bitrate                : 896 kBit/s
Quality                         : High
Add ID3 tag                     : No
Command line compressor         : C:\Program Files (x86)\Exact Audio Copy\Flac\flac.exe
Additional command line options : -V -8 -T "Artist=%artist%" -T "Title=%title%" -T "Album=%albumtitle%" -T "Date=%year%" -T "Tracknumber=%tracknr%" -T "Genre=%genre%" -T "Comment=ripped by alxsha" %source%
TOC of the extracted CD
     Track |   Start  |  Length  | Start sector | End sector
    ---------------------------------------------------------
        1  |  0:00.00 |  3:29.28 |         0    |    15702
        2  |  3:29.28 |  3:33.35 |     15703    |    31712
        3  |  7:02.63 |  3:50.31 |     31713    |    48993
        4  | 10:53.19 |  4:04.50 |     48994    |    67343
        5  | 14:57.69 |  3:47.60 |     67344    |    84428
        6  | 18:45.54 |  4:21.01 |     84429    |   104004
        7  | 23:06.55 |  4:01.20 |    104005    |   122099
        8  | 27:08.00 |  3:25.14 |    122100    |   137488
        9  | 30:33.14 |  4:56.39 |    137489    |   159727
       10  | 35:29.53 |  3:57.43 |    159728    |   177545
       11  | 39:27.21 |  6:43.62 |    177546    |   207832
       12  | 46:11.08 |  4:32.61 |    207833    |   228293
       13  | 50:43.69 |  4:38.37 |    228294    |   249180
       14  | 55:22.31 |  7:05.39 |    249181    |   281094
Track  1
     Filename D:\2-01. Synd For Dig.wav
     Pre-gap length  0:00:02.00
     Peak level 98.3 %
     Extraction speed 2.3 X
     Track quality 100.0 %
     Test CRC 83D33878
     Copy CRC 83D33878
     Track not present in AccurateRip database
     Copy OK
Track  2
     Filename D:\2-02. For Altid.wav
     Peak level 98.8 %
     Extraction speed 2.2 X
     Track quality 99.9 %
     Test CRC C77A1F49
     Copy CRC C77A1F49
     Track not present in AccurateRip database
     Copy OK
Track  3
     Filename D:\2-03. Vend Om.wav
     Peak level 98.8 %
     Extraction speed 2.5 X
     Track quality 99.9 %
     Test CRC AEA8EDB8
     Copy CRC AEA8EDB8
     Track not present in AccurateRip database
     Copy OK
Track  4
     Filename D:\2-04. Kl. 10.wav
     Peak level 98.6 %
     Extraction speed 2.7 X
     Track quality 99.9 %
     Test CRC 23B72842
     Copy CRC 23B72842
     Track not present in AccurateRip database
     Copy OK
Track  5
     Filename D:\2-05. Lyser I Mørke.wav
     Peak level 98.8 %
     Extraction speed 3.2 X
     Track quality 100.0 %
     Test CRC 263F4E64
     Copy CRC 263F4E64
     Track not present in AccurateRip database
     Copy OK
Track  6
     Filename D:\2-06. 12 Dage.wav
     Peak level 98.8 %
     Extraction speed 2.1 X
     Track quality 99.8 %
     Test CRC 85C01644
     Copy CRC 85C01644
     Track not present in AccurateRip database
     Copy OK
Track  7
     Filename D:\2-07. Gode Mennesker.wav
     Peak level 98.8 %
     Extraction speed 3.6 X
     Track quality 100.0 %
     Test CRC 3746FA93
     Copy CRC 3746FA93
     Track not present in AccurateRip database
     Copy OK
Track  8
     Filename D:\2-08. Ejer Hele Verden.wav
     Peak level 99.6 %
     Extraction speed 3.2 X
     Track quality 99.9 %
     Test CRC 7E9A6A83
     Copy CRC 7E9A6A83
     Track not present in AccurateRip database
     Copy OK
Track  9
     Filename D:\2-09. Har Du Det Ligesom Mig.wav
     Peak level 98.4 %
     Extraction speed 4.1 X
     Track quality 100.0 %
     Test CRC 6153B76F
     Copy CRC 6153B76F
     Track not present in AccurateRip database
     Copy OK
Track 10
     Filename D:\2-10. Lykkepille.wav
     Peak level 98.9 %
     Extraction speed 4.1 X
     Track quality 100.0 %
     Test CRC E9925B45
     Copy CRC E9925B45
     Track not present in AccurateRip database
     Copy OK
Track 11
     Filename D:\2-11. Forever (Jean Elan Remix).wav
     Peak level 98.8 %
     Extraction speed 4.6 X
     Track quality 100.0 %
     Test CRC 190A0603
     Copy CRC 190A0603
     Track not present in AccurateRip database
     Copy OK
Track 12
     Filename D:\2-12. Forever (DJ Tonka's True House Mix).wav
     Peak level 98.8 %
     Extraction speed 4.6 X
     Track quality 100.0 %
     Test CRC 8B2B38C9
     Copy CRC 8B2B38C9
     Track not present in AccurateRip database
     Copy OK
Track 13
     Filename D:\2-13. Forever (Tagteam Terror Remix).wav
     Peak level 98.6 %
     Extraction speed 4.8 X
     Track quality 100.0 %
     Test CRC 0AE33A33
     Copy CRC 0AE33A33
     Track not present in AccurateRip database
     Copy OK
Track 14
     Filename D:\2-14. Forever (Svenstrup & Vendelboe Remix).wav
     Peak level 99.8 %
     Extraction speed 5.2 X
     Track quality 100.0 %
     Test CRC 5D69669D
     Copy CRC 5D69669D
     Track not present in AccurateRip database
     Copy OK
None of the tracks are present in the AccurateRip database
No errors occurred
End of status report
==== Log checksum 92F4770C4AD76751D829C1911B9EB9E9195174A4061F05AD39955DF4430D4A36 ====

Отчёт auCDtect Task manager&#58;

-----------------------
DON'T MODIFY THIS FILE
-----------------------
PERFORMER: auCDtect Task Manager, ver. 1.5.1RC6 build 1.5.1.7
Copyright (c) 2008-2010 y-soft. All rights reserved
http://y-soft.org
ANALYZER: auCDtect: CD records authenticity detector, version 0.8.2
Copyright (c) 2004 Oleg Berngardt. All rights reserved.
Copyright (c) 2004 Alexander Djourik. All rights reserved.
FILE: 2-14. Forever (Svenstrup & Vendelboe Remix).flac
  Size: 52050151 Hash: 59B7C671539130D72625483698A3EE85 Accuracy: -m0
  Conclusion: CDDA 100%
  Signature: 7EC29E227D87B1850B77199F86F55C469CB16D04
FILE: 2-13. Forever (Tagteam Terror Remix).flac
  Size: 32892038 Hash: D056317B71ACEE133F139DB16F6EF3F2 Accuracy: -m0
  Conclusion: CDDA 99%
  Signature: 46FB40DBF6C019F2A33AF68BF8BD66E202F78100
FILE: 2-12. Forever (DJ Tonka's True House Mix).flac
  Size: 34804287 Hash: ADEEC282A8D457B0556DB8680F82775C Accuracy: -m0
  Conclusion: CDDA 100%
  Signature: A3D035FAEB312DE3337E8CC39487526235A60384
FILE: 2-11. Forever (Jean Elan Remix).flac
  Size: 56299112 Hash: 2A11F35A105879FEB6C4129FAFB86FFA Accuracy: -m0
  Conclusion: CDDA 100%
  Signature: 57A57C5D6C8E6A3DF56372AAA5B47D4544E2E447
FILE: 2-10. Lykkepille.flac
  Size: 27766826 Hash: D1AD9818BED674F5547FFAFEDA4D2464 Accuracy: -m0
  Conclusion: CDDA 100%
  Signature: 0ADF26BB8E8FBDB3E3A8C939C24F502620264835
FILE: 2-09. Har Du Det Ligesom Mig.flac
  Size: 32976030 Hash: 5EBC9F033CE057DF20125C69CBA4564B Accuracy: -m0
  Conclusion: CDDA 100%
  Signature: 8B17924313CB72A6593A82BB6EBE233869AC1483
FILE: 2-08. Ejer Hele Verden.flac
  Size: 25973906 Hash: 3B25292729BBF761137D1F6B97C55ACD Accuracy: -m0
  Conclusion: CDDA 100%
  Signature: 231B46AE3121D5ACB80D92588F062BFC5385407B
FILE: 2-07. Gode Mennesker.flac
  Size: 29312912 Hash: 027D267BE08D88015DCEB9149478E6D3 Accuracy: -m0
  Conclusion: CDDA 100%
  Signature: 2224DBD754D213735A50318DFED9178FFBCB2AB9
FILE: 2-06. 12 Dage.flac
  Size: 34297855 Hash: BED92F0DF3B7B5FA3EA90CE3B9B5ABBC Accuracy: -m0
  Conclusion: CDDA 100%
  Signature: 14B0A8B06B0464457BC61C09EE5BDDB0ACB284DF
FILE: 2-05. Lyser I Morke.flac
  Size: 27490049 Hash: 23A9C2895F7565C47D7D544F81815977 Accuracy: -m0
  Conclusion: CDDA 100%
  Signature: 6B2A95DDCCEC9A393C56B19192DF0EE39EA40D98
FILE: 2-04. Kl. 10.flac
  Size: 31939018 Hash: ABB02B971F6EF3F4854B522675669D98 Accuracy: -m0
  Conclusion: CDDA 100%
  Signature: 7AC725C71170950E0D9B42B09513322C03F3C45B
FILE: 2-03. Vend Om.flac
  Size: 30077674 Hash: 7A8253699A8AB21E20B0CF1658CFD782 Accuracy: -m0
  Conclusion: CDDA 100%
  Signature: 17360F830DA3623BF2B701A454A359306596B6FF
FILE: 2-02. For Altid.flac
  Size: 28016741 Hash: BD37D83F8FF24CA79B92E49CF5F272C5 Accuracy: -m0
  Conclusion: CDDA 100%
  Signature: AE612FB6170F1F810B6F78E61855DD1F4410E7F7
FILE: 2-01. Synd For Dig.flac
  Size: 26088225 Hash: 78775F2B5941E221FA895516919F0404 Accuracy: -m0
  Conclusion: CDDA 100%
  Signature: DC5B240A7F7ED68AF13C8A4F7A021306C22CD5AC
-
Яндекс.Метрика
Рейтинг@Mail.ru