Icona Pop - Icona Pop (2012) [FLAC|Lossless]<Pop, Electropop>

 

Создавать темы 17-Дек-2014 11:54

-Icona Pop - Icona Pop (2012)- Страна: Sweden
Год: 2012
Жанр: Pop, Electropop
Продолжительность: 00:40:24
Лейбл: Universal Music
Сканы: Only Front
Кодек: FLAC (tracks+.cue)
Битрейт: Lossless
Треклист:
01. Icona Pop feat. The Knocks & St Lucia - Sun Goes Down [3:14]
02. Icona Pop feat. Charli XCX - I Love It [2:37]
03. Icona Pop - We Got the World [3:08]
04. Icona Pop - Downtown [2:37]
05. Icona Pop - Ready for the Weekend [2:41]
06. Icona Pop - Wanna B With Somebody [3:01]
07. Icona Pop - Good for You [3:34]
08. Icona Pop - Manners [3:30]
09. Icona Pop - Top Rated [2:59]
10. Icona Pop - Lovers to Friends [3:00]
11. Icona Pop feat. Smiler - My Party [3:48]
12. Icona Pop - Nights Like This [3:27]
13. Icona Pop - Flashback [2:49]

Содержимое индексной карты (.cue&#41;&#58;

REM GENRE Pop
REM DATE 2012
REM DISCID A809770D
REM COMMENT "ExactAudioCopy v1.0b3"
CATALOG 0602537163908
PERFORMER "Icona Pop"
TITLE "Icona Pop"
FILE "01 - Icona Pop feat. The Knocks & St Lucia - Sun Goes Down.wav" WAVE
  TRACK 01 AUDIO
    TITLE "Sun Goes Down"
    PERFORMER "Icona Pop feat. The Knocks & St Lucia"
    ISRC GAeM71107842
    INDEX 01 00:00:00
FILE "02 - Icona Pop feat. Charli XCX - I Love It.wav" WAVE
  TRACK 02 AUDIO
    TITLE "I Love It"
    PERFORMER "Icona Pop feat. Charli XCX"
    ISRC SC_E=1200301
    INDEX 01 00:00:00
FILE "03 - Icona Pop - We Got the World.wav" WAVE
  TRACK 03 AUDIO
    TITLE "We Got the World"
    PERFORMER "Icona Pop"
    ISRC SC_E=1201301
    INDEX 01 00:00:00
FILE "04 - Icona Pop - Downtown.wav" WAVE
  TRACK 04 AUDIO
    TITLE "Downtown"
    PERFORMER "Icona Pop"
    ISRC SC_E=1200902
    INDEX 01 00:00:00
FILE "05 - Icona Pop - Ready for the Weekend.wav" WAVE
  TRACK 05 AUDIO
    TITLE "Ready for the Weekend"
    PERFORMER "Icona Pop"
    ISRC SC_E=1200903
    INDEX 01 00:00:00
FILE "06 - Icona Pop - Wanna B With Somebody.wav" WAVE
  TRACK 06 AUDIO
    TITLE "Wanna B With Somebody"
    PERFORMER "Icona Pop"
    ISRC SC_E=1200904
    INDEX 01 00:00:00
FILE "07 - Icona Pop - Good for You.wav" WAVE
  TRACK 07 AUDIO
    TITLE "Good for You"
    PERFORMER "Icona Pop"
    ISRC SC_E=1200905
    INDEX 01 00:00:00
FILE "08 - Icona Pop - Manners.wav" WAVE
  TRACK 08 AUDIO
    TITLE "Manners"
    PERFORMER "Icona Pop"
    ISRC GAeM71107887
    INDEX 01 00:00:00
FILE "09 - Icona Pop - Top Rated.wav" WAVE
  TRACK 09 AUDIO
    TITLE "Top Rated"
    PERFORMER "Icona Pop"
    ISRC SC_E=1200907
    INDEX 01 00:00:00
FILE "10 - Icona Pop - Lovers to Friends.wav" WAVE
  TRACK 10 AUDIO
    TITLE "Lovers to Friends"
    PERFORMER "Icona Pop"
    ISRC GAeM71107686
    INDEX 01 00:00:00
FILE "11 - Icona Pop feat. Smiler - My Party.wav" WAVE
  TRACK 11 AUDIO
    TITLE "My Party"
    PERFORMER "Icona Pop feat. Smiler"
    ISRC SC_E=1200909
    INDEX 01 00:00:00
FILE "12 - Icona Pop - Nights Like This.wav" WAVE
  TRACK 12 AUDIO
    TITLE "Nights Like This"
    PERFORMER "Icona Pop"
    ISRC GAeM71107018
    INDEX 01 00:00:00
FILE "13 - Icona Pop - Flashback.wav" WAVE
  TRACK 13 AUDIO
    TITLE "Flashback"
    PERFORMER "Icona Pop"
    ISRC GAeM71107018
    INDEX 01 00:00:00

Отчёт ЕАС&#58;

Exact Audio Copy V1.0 beta 3 from 29. August 2011
EAC extraction logfile from 18. November 2012, 15:32
Icona Pop / Icona Pop
Used drive  : TSSTcorpCDDVDW SH-S223F   Adapter: 7  ID: 0
Read mode               : Secure
Utilize accurate stream : Yes
Defeat audio cache      : Yes
Make use of C2 pointers : No
Read offset correction                      : 6
Overread into Lead-In and Lead-Out          : No
Fill up missing offset samples with silence : Yes
Delete leading and trailing silent blocks   : No
Null samples used in CRC calculations       : Yes
Used interface                              : Native Win32 interface for Win NT & 2000
Gap handling                                : Appended to previous track
Used output format              : User Defined Encoder
Selected bitrate                : 1024 kBit/s
Quality                         : High
Add ID3 tag                     : No
Command line compressor         : C:\Program Files (x86)\FLAC\flac.exe
Additional command line options : -8 -V -T "ARTIST=%artist%" -T "TITLE=%title%" -T "ALBUM=%albumtitle%" -T "DATE=%year%" -T "TRACKNUMBER=%tracknr%" -T "GENRE=%genre%" -T "PERFORMER=%albuminterpret%" -T "COMPOSER=%composer%" %haslyrics%--tag-from-file=LYRICS="%lyricsfile%"%haslyrics% -T "ALBUMARTIST=%albumartist%" -T "DISCNUMBER=%cdnumber%" -T "TOTALDISCS=%totalcds%" -T "TOTALTRACKS=%numtracks%" -T "COMMENT=%comment%" %source% -o %dest%
TOC of the extracted CD
     Track |   Start  |  Length  | Start sector | End sector
    ---------------------------------------------------------
        1  |  0:00.00 |  3:14.25 |         0    |    14574
        2  |  3:14.25 |  2:36.58 |     14575    |    26332
        3  |  5:51.08 |  3:07.67 |     26333    |    40424
        4  |  8:59.00 |  2:36.48 |     40425    |    52172
        5  | 11:35.48 |  2:40.70 |     52173    |    64242
        6  | 14:16.43 |  3:00.69 |     64243    |    77811
        7  | 17:17.37 |  3:33.39 |     77812    |    93825
        8  | 20:51.01 |  3:30.12 |     93826    |   109587
        9  | 24:21.13 |  2:58.68 |    109588    |   123005
       10  | 27:20.06 |  3:00.34 |    123006    |   136539
       11  | 30:20.40 |  3:47.58 |    136540    |   153622
       12  | 34:08.23 |  3:26.42 |    153623    |   169114
       13  | 37:34.65 |  2:48.50 |    169115    |   181764
Track  1
     Filename C:\EAC Rips\Icona Pop - Icona Pop\Icona Pop - Icona Pop (2012) [FLAC]\01 - Icona Pop feat. The Knocks & St Lucia - Sun Goes Down.wav
     Pre-gap length  0:00:02.00
     Peak level 100.0 %
     Extraction speed 4.3 X
     Track quality 100.0 %
     Test CRC 53C4C9B3
     Copy CRC 53C4C9B3
     Track not present in AccurateRip database
     Copy OK
Track  2
     Filename C:\EAC Rips\Icona Pop - Icona Pop\Icona Pop - Icona Pop (2012) [FLAC]\02 - Icona Pop feat. Charli XCX - I Love It.wav
     Peak level 99.8 %
     Extraction speed 4.4 X
     Track quality 100.0 %
     Test CRC 4D2AC421
     Copy CRC 4D2AC421
     Track not present in AccurateRip database
     Copy OK
Track  3
     Filename C:\EAC Rips\Icona Pop - Icona Pop\Icona Pop - Icona Pop (2012) [FLAC]\03 - Icona Pop - We Got the World.wav
     Peak level 98.9 %
     Extraction speed 3.8 X
     Track quality 99.9 %
     Test CRC 0E4CE62D
     Copy CRC 0E4CE62D
     Track not present in AccurateRip database
     Copy OK
Track  4
     Filename C:\EAC Rips\Icona Pop - Icona Pop\Icona Pop - Icona Pop (2012) [FLAC]\04 - Icona Pop - Downtown.wav
     Peak level 100.0 %
     Extraction speed 5.0 X
     Track quality 100.0 %
     Test CRC 4B523431
     Copy CRC 4B523431
     Track not present in AccurateRip database
     Copy OK
Track  5
     Filename C:\EAC Rips\Icona Pop - Icona Pop\Icona Pop - Icona Pop (2012) [FLAC]\05 - Icona Pop - Ready for the Weekend.wav
     Peak level 100.0 %
     Extraction speed 5.2 X
     Track quality 100.0 %
     Test CRC 65E71B9F
     Copy CRC 65E71B9F
     Track not present in AccurateRip database
     Copy OK
Track  6
     Filename C:\EAC Rips\Icona Pop - Icona Pop\Icona Pop - Icona Pop (2012) [FLAC]\06 - Icona Pop - Wanna B With Somebody.wav
     Peak level 100.0 %
     Extraction speed 4.3 X
     Track quality 99.9 %
     Test CRC F898239E
     Copy CRC F898239E
     Track not present in AccurateRip database
     Copy OK
Track  7
     Filename C:\EAC Rips\Icona Pop - Icona Pop\Icona Pop - Icona Pop (2012) [FLAC]\07 - Icona Pop - Good for You.wav
     Peak level 100.0 %
     Extraction speed 6.1 X
     Track quality 100.0 %
     Test CRC 59693045
     Copy CRC 59693045
     Track not present in AccurateRip database
     Copy OK
Track  8
     Filename C:\EAC Rips\Icona Pop - Icona Pop\Icona Pop - Icona Pop (2012) [FLAC]\08 - Icona Pop - Manners.wav
     Peak level 100.0 %
     Extraction speed 5.0 X
     Track quality 99.9 %
     Test CRC A6B65EA6
     Copy CRC A6B65EA6
     Track not present in AccurateRip database
     Copy OK
Track  9
     Filename C:\EAC Rips\Icona Pop - Icona Pop\Icona Pop - Icona Pop (2012) [FLAC]\09 - Icona Pop - Top Rated.wav
     Peak level 100.0 %
     Extraction speed 6.5 X
     Track quality 100.0 %
     Test CRC 21B10E1F
     Copy CRC 21B10E1F
     Track not present in AccurateRip database
     Copy OK
Track 10
     Filename C:\EAC Rips\Icona Pop - Icona Pop\Icona Pop - Icona Pop (2012) [FLAC]\10 - Icona Pop - Lovers to Friends.wav
     Peak level 100.0 %
     Extraction speed 6.6 X
     Track quality 100.0 %
     Test CRC 0B351941
     Copy CRC 0B351941
     Track not present in AccurateRip database
     Copy OK
Track 11
     Filename C:\EAC Rips\Icona Pop - Icona Pop\Icona Pop - Icona Pop (2012) [FLAC]\11 - Icona Pop feat. Smiler - My Party.wav
     Peak level 100.0 %
     Extraction speed 7.1 X
     Track quality 100.0 %
     Test CRC 983E8FE7
     Copy CRC 983E8FE7
     Track not present in AccurateRip database
     Copy OK
Track 12
     Filename C:\EAC Rips\Icona Pop - Icona Pop\Icona Pop - Icona Pop (2012) [FLAC]\12 - Icona Pop - Nights Like This.wav
     Peak level 100.0 %
     Extraction speed 7.3 X
     Track quality 100.0 %
     Test CRC 19D74BC6
     Copy CRC 19D74BC6
     Track not present in AccurateRip database
     Copy OK
Track 13
     Filename C:\EAC Rips\Icona Pop - Icona Pop\Icona Pop - Icona Pop (2012) [FLAC]\13 - Icona Pop - Flashback.wav
     Peak level 100.0 %
     Extraction speed 5.3 X
     Track quality 99.9 %
     Test CRC 8EC4A8C9
     Copy CRC 8EC4A8C9
     Track not present in AccurateRip database
     Copy OK
None of the tracks are present in the AccurateRip database
No errors occurred
End of status report
---- CUETools DB Plugin V2.1.3
[CTDB TOCID: NYluePIV5zx55j6hDYd52GW4miE-] disk not present in database, Submit result: NYluePIV5zx55j6hDYd52GW4miE- has been uploaded
==== Log checksum 9EEB03F22B69E49EEB569F132BADDB2C39BBB0EA32674465103FCCC44EA872F9 ====

Отчёт auCDtect Task Manager&#58;

-----------------------
DON'T MODIFY THIS FILE
-----------------------
PERFORMER: auCDtect Task Manager, ver. 1.5.1RC3 build 1.5.1.4
Copyright (c) 2008-2010 y-soft. All rights reserved
http://y-soft.org
ANALYZER: auCDtect: CD records authenticity detector, version 0.8.2
Copyright (c) 2004 Oleg Berngardt. All rights reserved.
Copyright (c) 2004 Alexander Djourik. All rights reserved.
FILE: 13 - Icona Pop - Flashback.flac
  Size: 20917232 Hash: 6826E1E7835CA772630BA75D473334C6 Accuracy: -m0
  Conclusion: CDDA 100%
  Signature: 0C74496436A69319BBF50F645AA350B58770E038
FILE: 12 - Icona Pop - Nights Like This.flac
  Size: 25455497 Hash: B58C2DD68A61D4729FAD429B67BF2AC0 Accuracy: -m0
  Conclusion: CDDA 100%
  Signature: 65930CD03AA6E234DD9A513E2172045F77183CE2
FILE: 11 - Icona Pop feat. Smiler - My Party.flac
  Size: 30057919 Hash: 57AE1C045D9B3D7162BDD14DEBD18906 Accuracy: -m0
  Conclusion: CDDA 100%
  Signature: 96852DDB3CA6866EDE96A63A036F0058615E7300
FILE: 10 - Icona Pop - Lovers to Friends.flac
  Size: 22969355 Hash: 15726DA04C255CD898FD3C46D1032221 Accuracy: -m0
  Conclusion: CDDA 100%
  Signature: FF73F3C5DE85FC3A0922BAC71A04A1971AB5281C
FILE: 09 - Icona Pop - Top Rated.flac
  Size: 22962852 Hash: 3E738307F70288F8EDD4C06B9D1BA541 Accuracy: -m0
  Conclusion: CDDA 100%
  Signature: 01FEF7DCED94EDDF0340DB91BA31CD3F9D955A71
FILE: 08 - Icona Pop - Manners.flac
  Size: 25300068 Hash: FD9D0A617C2B44408B15C3122C80DAFF Accuracy: -m0
  Conclusion: CDDA 100%
  Signature: 6A75A6B140BFABB3B1A25F5E2CE45E22B9655A3C
FILE: 07 - Icona Pop - Good for You.flac
  Size: 28168326 Hash: 9084962DC4BD943A659604AA4E974FDF Accuracy: -m0
  Conclusion: CDDA 100%
  Signature: 95090E877D68835343D25ABFE8470B9F3718528A
FILE: 06 - Icona Pop - Wanna B With Somebody.flac
  Size: 23317623 Hash: 92FA39C166756B3DEFA8950FFBF42EAD Accuracy: -m0
  Conclusion: CDDA 99%
  Signature: 10AE73A8D3A6D5BC42B5A4FD8ED69514B8B61C79
FILE: 05 - Icona Pop - Ready for the Weekend.flac
  Size: 19733771 Hash: 3F26174C62D1DBD0AF63D35B172C40E2 Accuracy: -m0
  Conclusion: CDDA 100%
  Signature: 7B58363B95F44A368220CEE7522277C1D5F8B62A
FILE: 04 - Icona Pop - Downtown.flac
  Size: 20665529 Hash: 5E3D95EC9095C3789BF97B616F701F62 Accuracy: -m0
  Conclusion: CDDA 99%
  Signature: 1BCFD02CDED9FCF0E8708C50AC7F93AD2678D92D
FILE: 03 - Icona Pop - We Got the World.flac
  Size: 25332039 Hash: 51F3F2F90C07658D3A10EBBCFE48A79B Accuracy: -m0
  Conclusion: CDDA 100%
  Signature: 8CB5BC4C01794A51D4536DC7832F2CF2FE0476D0
FILE: 02 - Icona Pop feat. Charli XCX - I Love It.flac
  Size: 21395757 Hash: FBFC58465AAFED2CDAEBC881A068C841 Accuracy: -m0
  Conclusion: CDDA 100%
  Signature: F6448D1084D76D52F0D02E4079E0122A13323EE2
FILE: 01 - Icona Pop feat. The Knocks & St Lucia - Sun Goes Down.flac
  Size: 23858573 Hash: A224F92D7244664AA21916EFB863AC5C Accuracy: -m0
  Conclusion: CDDA 100%
  Signature: A87D526E685B6CDC9CBEB4A003F939175951FC2F
-
Яндекс.Метрика
Рейтинг@Mail.ru