Basic Element - The Truth (2008) [FLAC (image+.cue)|Lossless]<EuroDance>

 

Создавать темы 17-Дек-2014 11:54

-Basic Element - The Truth (2008)- Год: 2008
Жанр: EuroDance
Продолжительность: 00:40:45
Кодек: FLAC (image+.cue)
Битрейт: Lossless
Трек лист:
01. The Truth Interlude
02. Touch You Right Now
03. Rage
04. Game Over
05. Turn Around
06. Not With You
07. Feelings
08. Your're Gone
09. The Bitch
10. To You 2008
11. I'll Never Let You Know 2008
12. Raise The Gain 2008
13. The Truth

EAC log

Exact Audio Copy V0.99 prebeta 4 from 23. January 2008
Отчёт EAC об извлечении, выполненном 5. апреля 2009, 17:48
Basic Element / The Truth
Дисковод: HL-DT-STDVD-RW_GSA-H41N Adapter: 3 ID: 0
Режим чтения : Достоверность
Использование точного потока : Да
Отключение кэша аудио : Да
Использование указателей C2 : Нет
Коррекция смещения при чтении : 667
Способность читать области Lead-in и Lead-out : Нет
Заполнение пропущенных сэмплов тишиной : Да
Удаление блоков с тишиной в начале и конце : Нет
При вычислениях CRC использовались нулевые сэмплы : Нет
Интерфейс : Установленный внешний ASPI-интерфейс
Выходной формат : Внутренние WAV-операции
Формат сэмплов : 44.100 Гц; 16 бит; стерео
TOC извлечённого CD
Трек | Старт | Длительность | Начальный сектор | Конечный сектор
---------------------------------------------------------------------
1 | 0:00.00 | 1:07.26 | 0 | 5050
2 | 1:07.26 | 3:14.07 | 5051 | 19607
3 | 4:21.33 | 2:32.35 | 19608 | 31042
4 | 6:53.68 | 2:55.06 | 31043 | 44173
5 | 9:48.74 | 3:07.15 | 44174 | 58213
6 | 12:56.14 | 3:25.01 | 58214 | 73589
7 | 16:21.15 | 3:23.19 | 73590 | 88833
8 | 19:44.34 | 3:56.19 | 88834 | 106552
9 | 23:40.53 | 3:08.42 | 106553 | 120694
10 | 26:49.20 | 3:09.17 | 120695 | 134886
11 | 29:58.37 | 3:48.10 | 134887 | 151996
12 | 33:46.47 | 3:21.51 | 151997 | 167122
13 | 37:08.23 | 3:37.24 | 167123 | 183421
Характеристики диапазона извлечения и сообщения об ошибках
Выбранный диапазон
Имя файла D:\Basic Element - The Truth.wav
Пиковый уровень 100.0 %
Качество диапазона 100.0 %
CRC копии 6C318165
Копирование... OK
Ошибок не произошло
AccurateRip: сводка
Трек 1 нет в базе данных
Трек 2 нет в базе данных
Трек 3 нет в базе данных
Трек 4 нет в базе данных
Трек 5 нет в базе данных
Трек 6 нет в базе данных
Трек 7 нет в базе данных
Трек 8 нет в базе данных
Трек 9 нет в базе данных
Трек 10 нет в базе данных
Трек 11 нет в базе данных
Трек 12 нет в базе данных
Трек 13 нет в базе данных
Ни одного трека нет в базе AccurateRip
Конец отчёта

audiochecker log

AUDIOCHECKER v2.0 beta (build 457) - by Dester - [url=mailto:[email protected]][email protected][/url]
~~~~~~~~~~~~~~~~~~~~~~~~~~~~~~~~~~
-=== НЕ РЕДАКТИРУЙТЕ ЭТОТ ФАЙЛ! ===-
Путь: ...\2008 - The Truth
1 -=- Basic Element - The Truth.flac -=- CDDA (100%)
69555892
-
Яндекс.Метрика
Рейтинг@Mail.ru