[ Сегодня на трекере фрилич! Идет свободное скачивание без начисления Download ]

The Monotones - Disco Net - Wodka Da (1980) 2000 Remastered [APE|Lossless]<Pop, Synth-pop, Disco>

 

Создавать темы 17-Дек-2014 11:54

-The Monotones - Disco Net - Wodka Da (1980) 2000 Remastered- Год: 1980
Жанр: Pop, Synth-pop, Disco
Лэйбл: Ronin Records
Формат: CD, Album, Remastered
Аудио Кодек: APE
Аудио Битрейт: Lossless
Тип Рипа: Image+.cue+.log
Наличие Сканов: Да, HQ
Происхождение Рипа: Papulya
Продолжительность: 00:33:49-Дополненное ремастированное издание 2000 года единственного альбома пародийной группы из Голландии The Monotones выпущенного в 1980 году под названием "The Monotones". А начиналось всё с "Mono" - пародии на такие песни как "Video killed The Radio Star" The Buggles и "Popmuzik" M. Но большую популярность приобрел трек "Disco Njet - Wodka Da", что и повлияло на смену названия релиза в дальнейшем.-Трек лист:
01. Disco Net - Wodka Da :: 02:45
02. Zero To Zero :: 05:44
03. Yesterday I Saw An UFO :: 04:58
04. Edison :: 03:11
05. Mono :: 06:01
06. Big Bang :: 08:29
07. Monotone Music :: 02:39

Отчёт EAC&#58;

Exact Audio Copy V1.0 beta 1 from 15. November 2010
EAC extraction logfile from 5. May 2012, 20:22
The Monotones / Disco Net - Wodka Da
Used drive  : DTSOFT  BDROM   Adapter: 2  ID: 0
Read mode               : Secure
Utilize accurate stream : Yes
Defeat audio cache      : Yes
Make use of C2 pointers : No
Read offset correction                      : 0
Overread into Lead-In and Lead-Out          : No
Fill up missing offset samples with silence : Yes
Delete leading and trailing silent blocks   : No
Null samples used in CRC calculations       : No
Used interface                              : Native Win32 interface for Win NT & 2000
Used output format : Internal WAV Routines
Sample format      : 44.100 Hz; 16 Bit; Stereo
TOC of the extracted CD
     Track |   Start  |  Length  | Start sector | End sector
    ---------------------------------------------------------
        1  |  0:00.00 |  2:45.59 |         0    |    12433
        2  |  2:45.59 |  5:44.29 |     12434    |    38262
        3  |  8:30.13 |  4:58.24 |     38263    |    60636
        4  | 13:28.37 |  3:11.17 |     60637    |    74978
        5  | 16:39.54 |  6:01.43 |     74979    |   102096
        6  | 22:41.22 |  8:29.26 |    102097    |   140297
        7  | 31:10.48 |  2:39.20 |    140298    |   152242
Range status and errors
Selected range
     Filename C:\Papulya's Home\8000Monotones\The Monotones - Disco Net - Wodka Da.wav
     Peak level 96.5 %
     Extraction speed 3.0 X
     Range quality 99.9 %
     Copy CRC 290212B3
     Copy OK
No errors occurred
AccurateRip summary
Track  1  accurately ripped (confidence 1)  [2FFA805F]
Track  2  accurately ripped (confidence 1)  [A4DF678E]
Track  3  accurately ripped (confidence 1)  [83DF014E]
Track  4  accurately ripped (confidence 1)  [4C9CA9A6]
Track  5  accurately ripped (confidence 1)  [00904B58]
Track  6  accurately ripped (confidence 1)  [C1C560B7]
Track  7  accurately ripped (confidence 1)  [79541F57]
All tracks accurately ripped
End of status report
==== Log checksum 02D72E18962EBE391A290CA4FD3E29B95D5A506FD57176E899658C92741930EF ====

Отчёт auCDtect Task manager&#58;

-----------------------
DON'T MODIFY THIS FILE
-----------------------
PERFORMER: auCDtect Task Manager, ver. 1.5.1RC6 build 1.5.1.7
Copyright (c) 2008-2010 y-soft. All rights reserved
http://y-soft.org
ANALYZER: auCDtect: CD records authenticity detector, version 0.8.2
Copyright (c) 2004 Oleg Berngardt. All rights reserved.
Copyright (c) 2004 Alexander Djourik. All rights reserved.
FILE: The Monotones - Disco Net - Wodka Da.ape
  Size: 258075944 Hash: 57B591D6398BF38A7E02BED44421CE65 Accuracy: -m0
  Conclusion: CDDA 100%
  Signature: FD19FD322FDFCA535EECAE66B9F636AC458F7C69
-
Яндекс.Метрика
Рейтинг@Mail.ru