[ Сегодня на трекере фрилич! Идет свободное скачивание без начисления Download ]

Ice MC - Ice' n' Green (1994) [FLAC (image +.cue)|Lossless]<Eurodance>

 

Создавать темы 17-Дек-2014 11:54

-Ice MC - Ice' n' Green (1994)- Год: 1994
Жанр: Eurodance
Лейбл: Polydor
Каталог#: 523 672-2
Страна: Germany
Продолжительность: 01:05:30
Кодек: FLAC (image +.cue)
Битрейт: Lossless-Треклист:
01. It's A Rainy Day 4:12
02. Labba Ling 4:06
03. Take Away The Colour 3:25
04. Think About The Way 4:16
05. Look After Nature 3:50
06. Run Fa Cover 4:37
07. Russian Roulette 4:23
08. The Britaican 3:20
09. Dark Night Rider 4:09
10. It's A Rainy Day (Happyman Radio Mix) 3:23
11. Funkin' With You 3:25
12. Afrikan Buzz 3:50
13. Think About The Way (Pumped Up Club Mix) 5:54
14. Think About The Way (Noche De Luna Mix) 6:22
15. Think About The Way (Answering Machine Mix) 5:34

Отчёт ЕАС&#58;

Exact Audio Copy V0.99 prebeta 4 from 23. January 2008
Отчёт EAC об извлечении, выполненном 25. июня 2009, 23:45
Ice Mc / Ice' n' Green
Дисковод: PLEXTOR DVDR   PX-750A   Adapter: 1  ID: 0
Режим чтения                 : Достоверность
Использование точного потока : Да
Отключение кэша аудио        : Да
Использование указателей C2  : Нет
Коррекция смещения при чтении                     : 102
Способность читать области Lead-in и Lead-out     : Нет
Заполнение пропущенных сэмплов тишиной            : Да
Удаление блоков с тишиной в начале и конце        : Нет
При вычислениях CRC использовались нулевые сэмплы : Да
Интерфейс                                         : Встроенный Win32-интерфейс для Win NT/2000
Выходной формат : Внутренние WAV-операции
Формат сэмплов  : 44.100 Гц; 16 бит; стерео
TOC извлечённого CD
     Трек  |  Старт   | Длительность  |Начальный сектор|Конечный сектор
    -------------------------------------------------------------------
        1  |  0:00.00 |   4:14.65     |           0    |     19114
        2  |  4:14.65 |   4:10.25     |       19115    |     37889
        3  |  8:25.15 |   3:28.40     |       37890    |     53529
        4  | 11:53.55 |   4:20.72     |       53530    |     73101
        5  | 16:14.52 |   3:51.63     |       73102    |     90489
        6  | 20:06.40 |   4:40.45     |       90490    |    111534
        7  | 24:47.10 |   4:27.00     |      111535    |    131559
        8  | 29:14.10 |   3:21.40     |      131560    |    146674
        9  | 32:35.50 |   4:13.47     |      146675    |    165696
       10  | 36:49.22 |   3:26.35     |      165697    |    181181
       11  | 40:15.57 |   3:28.68     |      181182    |    196849
       12  | 43:44.50 |   3:54.40     |      196850    |    214439
       13  | 47:39.15 |   5:54.42     |      214440    |    241031
       14  | 53:33.57 |   6:24.28     |      241032    |    269859
       15  | 59:58.10 |   5:32.30     |      269860    |    294789
Характеристики диапазона извлечения и сообщения об ошибках
Выбранный диапазон
     Имя файла E:\Music Rip\Ice Mc - Ice' n' Green.wav
     Пиковый уровень 77.9 %
     Качество диапазона 99.9 %
     CRC копии 39422FE4
     Копирование... OK
Ошибок не произошло
Конец отчёта

Отчёт Audiochecker&#58;

AUDIOCHECKER v2.0 beta (build 457) - by Dester - [url=mailto:[email protected]][email protected][/url]
~~~~~~~~~~~~~~~~~~~~~~~~~~~~~~~~~~
-=== НЕ РЕДАКТИРУЙТЕ ЭТОТ ФАЙЛ! ===-
Путь: ...\Ice MC - Ice' n' Green
1 -=- Ice MC - Ice'n'Green.flac -=- CDDA (100%)
100461140

auCDtect&#58;

-----------------------
DON'T MODIFY THIS FILE
-----------------------
PERFORMER: auCDtect Task Manager, ver. 1.5.1RC4 build 1.5.1.5
Copyright (c) 2008-2010 y-soft. All rights reserved
http://y-soft.org
ANALYZER: auCDtect: CD records authenticity detector, version 0.8.2
Copyright (c) 2004 Oleg Berngardt. All rights reserved.
Copyright (c) 2004 Alexander Djourik. All rights reserved.
FILE: Ice MC - Ice'n'Green.flac
  Size: 417488130 Hash: 1C8E0E096ED904D5FEC0A9D33A5C0900 Accuracy: -m0
  Conclusion: CDDA 100%
  Signature: 61DA9F4495417D9B5C825EF404535C536265BFF9
-
Яндекс.Метрика
Рейтинг@Mail.ru