September - 3 Albums (2004, 2009, 2011) [FLAC|Lossless]<Pop, Eurodance>

 

Создавать темы 17-Дек-2014 11:54

-September - 3 Albums (2004, 2009, 2011)- Год: 2004, 2009, 2011
Жанр: Pop, Eurodance
Продолжительность: 02:49:41
Кодек: FLAC
Битрейт: Lossless-September (Petra Linnea Paula Marklund) - натуральная блондинка с ангельской внешностью (белокурые кудри достались Петре от мамы, которая родом из Словении).
Ей было всего 12 лет, когда она впервые пришла на студию звукозаписи, в 18 лет взяв псевдоним September записала свои первые хиты “La La La” (Never Give It Up), “We Can Do It” и “September All Over”, авторами и продюсерами которых являлись Jonas Von Der Burg, Niclas Von Der Burg и Anoo Bhagavan.
Они и по сей день составляют отличную творческую команду, а песни September отличают не только зажигательные танцевальные ритмы, но и глубокий, удивительно притягательный голос.
-

2004 - September

Трек лист:
01. Same Old Song
02. September All Over
03. Get What You Paid For
04. La La La (Never Give It Up)
05. Mary Ann
06. We Can Do It
07. Can't Love Myself
08. Star Generation
09. Pretty World
10. Love Thing
11. Love For Free
Продолжительность: 00:38:02

Отчёт ЕАС&#58;

Exact Audio Copy V0.99 prebeta 5 from 4. May 2009
Отчёт EAC об извлечении, выполненном 23. сентября 2010, 14:11
September / September 2004
Дисковод: MATSHITADVD-RAM UJ-860S   Adapter: 2  ID: 0
Режим чтения                 : Достоверность
Использование точного потока : Да
Отключение кэша аудио        : Да
Использование указателей C2  : Нет
Коррекция смещения при чтении                     : 102
Способность читать области Lead-in и Lead-out     : Нет
Заполнение пропущенных сэмплов тишиной            : Да
Удаление блоков с тишиной в начале и конце        : Нет
При вычислениях CRC использовались нулевые сэмплы : Да
Интерфейс                                         : Встроенный Win32-интерфейс для Win NT/2000
Выходной формат          : Пользовательский кодировщик
Выбранный битрейт        : 320 kBit/s
Качество                 : Высокий
Добавление ID3-тэга      : Нет
Утилита сжатия           : C:\Eac\Flac\flac.exe
Дополнительные параметры : -6 -V -T "artist=%a" -T "title=%t" -T "album=%g" -T "date=%y" -T "tracknumber=%n" -T "genre=%m" -T "comment=EAC FLAC -6" %s
TOC извлечённого CD
     Трек |   Старт  | Длительность | Начальный сектор | Конечный сектор
    ---------------------------------------------------------------------
       1  |  0:00.00 |    3:27.02   |           0      |      15526
       2  |  3:27.02 |    3:47.21   |       15527      |      32572
       3  |  7:14.23 |    3:23.35   |       32573      |      47832
       4  | 10:37.58 |    3:18.63   |       47833      |      62745
       5  | 13:56.46 |    3:08.34   |       62746      |      76879
       6  | 17:05.05 |    3:36.72   |       76880      |      93151
       7  | 20:42.02 |    3:29.20   |       93152      |     108846
       8  | 24:11.22 |    3:17.44   |      108847      |     123665
       9  | 27:28.66 |    3:41.47   |      123666      |     140287
      10  | 31:10.38 |    3:24.01   |      140288      |     155588
      11  | 34:34.39 |    3:27.49   |      155589      |     171162
Характеристики диапазона извлечения и сообщения об ошибках
Выбранный диапазон
     Имя файла C:\Users\Home\Desktop\September - September 2004.wav
     Пиковый уровень 100.0 %
     Качество диапазона 100.0 %
     CRC теста FC5D037C
     CRC копии FC5D037C
     Копирование... OK
Ошибок не произошло
AccurateRip: сводка
Трек  1  точное извлечение (доверие 1)  [300D5FB7]
Трек  2  точное извлечение (доверие 1)  [0761B932]
Трек  3  точное извлечение (доверие 1)  [A3813B67]
Трек  4  точное извлечение (доверие 1)  [3D9A0F80]
Трек  5  точное извлечение (доверие 1)  [1E676466]
Трек  6  точное извлечение (доверие 1)  [3D85CE3F]
Трек  7  точное извлечение (доверие 1)  [47ECA8B9]
Трек  8  точное извлечение (доверие 1)  [3393CF95]
Трек  9  точное извлечение (доверие 1)  [283F08DB]
Трек 10  точное извлечение (доверие 1)  [009DFA4C]
Трек 11  точное извлечение (доверие 1)  [5F61DCA7]
Все треки извлечены точно
Конец отчёта

Отчёт auCDtectTaskManager&#58;

-----------------------
DON'T MODIFY THIS FILE
-----------------------
PERFORMER: auCDtect Task Manager, ver. 1.5.1RC4 build 1.5.1.5
Copyright (c) 2008-2010 y-soft. All rights reserved
http://y-soft.org
ANALYZER: auCDtect: CD records authenticity detector, version 0.8.2
Copyright (c) 2004 Oleg Berngardt. All rights reserved.
Copyright (c) 2004 Alexander Djourik. All rights reserved.
FILE: September - September 2004.flac
  Size: 285230701 Hash: D055E3396DCD48B9E6F869953BE79BEC Accuracy: -m0
  Conclusion: CDDA 100%
  Signature: E9A70491A990F9F9D50DD1A6D1157CF0EDABB5A0

2009 - Gold

Трек лист:
01. Cry For You (UK Radio Edit By Dave Ramone)
02. Because I Love You (JvD Radio Edit)
03. Can't Get Over
04. Candy Love
05. R.I.P.
06. Looking For Love
07. Satellites
08. Flowers On The Grave
09. It Doesn't Matter
10. Sacrifice
11. A Sad Song
12. Freaking Out
13. Taboo
14. Midnight Heartache
15. Until I Die
16. End Of The Rainbow
Bonus Track:
17. Because I Love You (Jazzy Candlelight Version)
18. Cry For You (Candlelight Remix)
19. Satellites (Live Acoustic Version)
Продолжительность: 01:15:32

Дополнительная информация&#58;

Сборник лучших песен, но в него не вошли композиции с альбома 2004-го года "September".

Отчёт ЕАС&#58;

Exact Audio Copy V0.99 prebeta 4 from 23. January 2008
EAC extraction logfile from 23. May 2009, 16:40
September / Gold (Incl Bonus Tracks)
Used drive  : PLEXTOR DVDR PX-810SA Adapter: 5 ID: 0
Read mode               : Secure
Utilize accurate stream : Yes
Defeat audio cache      : Yes
Make use of C2 pointers : No
Read offset correction                      : 48
Overread into Lead-In and Lead-Out          : No
Fill up missing offset samples with silence : Yes
Delete leading and trailing silent blocks   : No
Null samples used in CRC calculations       : Yes
Used interface                              : Installed external ASPI interface
Used output format : Internal WAV Routines
Sample format      : 44.100 Hz; 16 Bit; Stereo
TOC of the extracted CD
     Track |   Start  |  Length  | Start sector | End sector
    ---------------------------------------------------------
        1  |  0:00.00 |  2:45.35 |         0    |    12409
        2  |  2:45.35 |  3:16.16 |     12410    |    27125
        3  |  6:01.51 |  3:02.13 |     27126    |    40788
        4  |  9:03.64 |  2:46.16 |     40789    |    53254
        5  | 11:50.05 |  3:49.34 |     53255    |    70463
        6  | 15:39.39 |  3:24.47 |     70464    |    85810
        7  | 19:04.11 |  3:16.14 |     85811    |   100524
        8  | 22:20.25 |  4:17.63 |    100525    |   119862
        9  | 26:38.13 |  3:45.29 |    119863    |   136766
       10  | 30:23.42 |  3:56.72 |    136767    |   154538
       11  | 34:20.39 |  2:57.08 |    154539    |   167821
       12  | 37:17.47 |  3:23.41 |    167822    |   183087
       13  | 40:41.13 |  3:43.70 |    183088    |   199882
       14  | 44:25.08 |  3:44.70 |    199883    |   216752
       15  | 48:10.03 |  3:44.27 |    216753    |   233579
       16  | 51:54.30 |  3:37.50 |    233580    |   249904
       17  | 55:32.05 |  3:52.42 |    249905    |   267346
       18  | 59:24.47 |  3:06.01 |    267347    |   281297
       19  | 62:30.48 |  3:02.07 |    281298    |   294954
Range status and errors
Selected range
     Filename E:\Temp\September - Gold (Incl Bonus Tracks).wav
     Peak level 98.9 %
     Range quality 100.0 %
     Copy CRC A85DAA33
     Copy OK
No errors occurred
End of status report

Отчёт auCDtectTaskManager&#58;

-----------------------
DON'T MODIFY THIS FILE
-----------------------
PERFORMER: auCDtect Task Manager, ver. 1.5.1RC4 build 1.5.1.5
Copyright (c) 2008-2010 y-soft. All rights reserved
http://y-soft.org
ANALYZER: auCDtect: CD records authenticity detector, version 0.8.2
Copyright (c) 2004 Oleg Berngardt. All rights reserved.
Copyright (c) 2004 Alexander Djourik. All rights reserved.
FILE: September - Gold (Incl Bonus Tracks).flac
  Size: 496994810 Hash: 8787C9D8316D7B66BE63ED0B250CF8F2 Accuracy: -m0
  Conclusion: CDDA 100%
  Signature: D466766A735A7BCD83578B35FE0CCAE0B90B7BC9

2011 - Love CPR

Трек лист:
01. Party In My Head
02. Resuscitate Me
03. Something's Going On
04. Intimate Connection
05. Heat Rising
06. Walk Away
07. Ricochet
08. Hands Up
09. Me & My Microphone
10. Music
11. My Emergency
12. Walk Alone
13. White Flag
14. Bump And Grind
Bonus Track:
15. Baksmalla
16. Karlekens Tunga
17. Mikrofonkat
18. Vem Ska Jag Tro Pa
19. Teddybjornen Fredriksson
Продолжительность: 01:16:07

Отчёт ЕАС&#58;

Exact Audio Copy V1.0 beta 1 from 15. November 2010
Отчёт EAC об извлечении, выполненном 27. февраля 2011, 2:14
September / Love CPR
Дисковод: MATSHITADVD-RAM UJ-860S   Adapter: 2  ID: 0
Режим чтения                 : Достоверность
Использование точного потока : Да
Отключение кэша аудио        : Да
Использование указателей C2  : Нет
Коррекция смещения при чтении                     : 102
Способность читать области Lead-in и Lead-out     : Нет
Заполнение пропущенных сэмплов тишиной            : Да
Удаление блоков с тишиной в начале и конце        : Нет
При вычислениях CRC использовались нулевые сэмплы : Нет
Интерфейс                                         : Встроенный Win32-интерфейс для Win NT/2000
Выходной формат          : Пользовательский кодировщик
Выбранный битрейт        : 1024 kBit/s
Качество                 : Высокий
Добавление ID3-тэга      : Да
Утилита сжатия           : C:\Eac\Flac\flac.exe
Дополнительные параметры : -6 -V -T "artist=%a" -T "title=%t" -T "album=%g" -T "date=%y" -T "tracknumber=%n" -T "genre=%m" -T "comment=EAC FLAC -6" %s
TOC извлечённого CD
     Трек |   Старт  | Длительность | Начальный сектор | Конечный сектор
    ---------------------------------------------------------------------
       1  |  0:00.00 |    4:17.64   |           0      |      19338
       2  |  4:17.64 |    3:17.06   |       19339      |      34119
       3  |  7:34.70 |    3:07.31   |       34120      |      48175
       4  | 10:42.26 |    3:35.13   |       48176      |      64313
       5  | 14:17.39 |    3:55.41   |       64314      |      81979
       6  | 18:13.05 |    3:51.71   |       81980      |      99375
       7  | 22:05.01 |    2:54.32   |       99376      |     112457
       8  | 24:59.33 |    3:36.32   |      112458      |     128689
       9  | 28:35.65 |    2:45.15   |      128690      |     141079
      10  | 31:21.05 |    3:47.50   |      141080      |     158154
      11  | 35:08.55 |    3:38.28   |      158155      |     174532
      12  | 38:47.08 |    2:51.02   |      174533      |     187359
      13  | 41:38.10 |    3:04.07   |      187360      |     201166
      14  | 44:42.17 |    4:16.01   |      201167      |     220367
      15  | 48:58.18 |    3:37.23   |      220368      |     236665
      16  | 52:35.41 |    3:10.49   |      236666      |     250964
      17  | 55:46.15 |    2:46.05   |      250965      |     263419
      18  | 58:32.20 |    3:29.43   |      263420      |     279137
      19  | 62:01.63 |    4:05.66   |      279138      |     297578
Характеристики диапазона извлечения и сообщения об ошибках
Выбранный диапазон
     Имя файла C:\Music\September - Love CPR.wav
     Пиковый уровень 100.0 %
0.0 X
     Качество диапазона 100.0 %
     CRC теста E7E3E06D
     CRC копии E7E3E06D
     Копирование... OK
Ошибок не произошло
AccurateRip: сводка
Трек  1  нет в базе данных
Трек  2  нет в базе данных
Трек  3  нет в базе данных
Трек  4  нет в базе данных
Трек  5  нет в базе данных
Трек  6  нет в базе данных
Трек  7  нет в базе данных
Трек  8  нет в базе данных
Трек  9  нет в базе данных
Трек 10  нет в базе данных
Трек 11  нет в базе данных
Трек 12  нет в базе данных
Трек 13  нет в базе данных
Трек 14  нет в базе данных
Трек 15  нет в базе данных
Трек 16  нет в базе данных
Трек 17  нет в базе данных
Трек 18  нет в базе данных
Трек 19  нет в базе данных
Ни одного трека нет в базе AccurateRip
Конец отчёта

Отчёт auCDtectTaskManager&#58;

-----------------------
DON'T MODIFY THIS FILE
-----------------------
PERFORMER: auCDtect Task Manager, ver. 1.5.1RC4 build 1.5.1.5
Copyright (c) 2008-2010 y-soft. All rights reserved
http://y-soft.org
ANALYZER: auCDtect: CD records authenticity detector, version 0.8.2
Copyright (c) 2004 Oleg Berngardt. All rights reserved.
Copyright (c) 2004 Alexander Djourik. All rights reserved.
FILE: September - Love CPR.flac
  Size: 496677102 Hash: F6D1602F9D331B60D4B70097FA2A35D3 Accuracy: -m0
  Conclusion: CDDA 100%
  Signature: 9A3FE4FCF6B23ED337B4B854C7E858575F4299C6
-
Яндекс.Метрика
Рейтинг@Mail.ru