Haddaway - 2 Albums (1993,1995) /BMG Victor,Inc. Japan/ [FLAC|Lossless]<Eurodance>

 

Создавать темы 17-Дек-2014 11:54

-Haddaway - 2 Albums (Japanese edition) Жанр: Eurodance,Europop,Euro-House,Ballad
Лейбл: Coconut Records / Ariola
Изготовитель: BMG Victor, Inc.
Каталог: под спойлерами
Страна-производитель диска: Japan
Года изданий: 1993, 1995
Тип рипа: EAC (Img+Cue+Log)
Аудио кодек: FLAC [*.flac]
Битрейт:: Lossless
Продолжительность: 01:49:55
Источник (релизёр): Рипы с собственных CD
Наличие сканов: Да
Размер: 967 Мб
-Альбомы-

The Album (1993&#41;

Треклист:
01. What Is Love (4:31)
02. Shout (4:36)
03. Yeah (3:43)
04. Rock My Heart (4:20)
05. When The Feeling's Gone (4:17)
06. What Is Love (Rapino-Brothers-Mix) (3:50)
07. Life (4:17)
08. Mama's House (4:05)
09. Come Back (Love Has Got A Hold On Me) (4:01)
10. Sing About Love (4:43)
11. I Miss You (4:15)
12. Life (Album Re-Mix) (4:45)
Продолжительность: 00:51:24
Каталог: BVCP-689 (74321-14782-2)

EAC-Log

Exact Audio Copy V0.99 prebeta 5 from 4. May 2009
EAC extraction logfile from 6. November 2011, 20:24
Haddaway / The Album
Used drive  : ASUS    DRW-20B1ST   Adapter: 2  ID: 0
Read mode               : Secure
Utilize accurate stream : Yes
Defeat audio cache      : Yes
Make use of C2 pointers : No
Read offset correction                      : 6
Overread into Lead-In and Lead-Out          : No
Fill up missing offset samples with silence : Yes
Delete leading and trailing silent blocks   : No
Null samples used in CRC calculations       : Yes
Used interface                              : Installed external ASPI interface
Used output format              : User Defined Encoder
Selected bitrate                : 32 kBit/s
Quality                         : High
Add ID3 tag                     : No
Command line compressor         : C:\Program Files\Exact Audio Copy\Flac\flac.exe
Additional command line options : -T "DATE=%y" -T"GENRE=%m" -8 -V %s
TOC of the extracted CD
     Track |   Start  |  Length  | Start sector | End sector
    ---------------------------------------------------------
        1  |  0:00.37 |  4:31.20 |        37    |    20381
        2  |  4:31.57 |  4:36.23 |     20382    |    41104
        3  |  9:08.05 |  3:43.32 |     41105    |    57861
        4  | 12:51.37 |  4:20.18 |     57862    |    77379
        5  | 17:11.55 |  4:17.17 |     77380    |    96671
        6  | 21:28.72 |  3:50.18 |     96672    |   113939
        7  | 25:19.15 |  4:17.25 |    113940    |   133239
        8  | 29:36.40 |  4:05.20 |    133240    |   151634
        9  | 33:41.60 |  4:00.62 |    151635    |   169696
       10  | 37:42.47 |  4:42.48 |    169697    |   190894
       11  | 42:25.20 |  4:14.45 |    190895    |   209989
       12  | 46:39.65 |  4:44.55 |    209990    |   231344
Range status and errors
Selected range
     Filename D:\Haddaway - The Album.wav
     Peak level 100.0 %
     Range quality 100.0 %
     Test CRC 003CC5C4
     Copy CRC 003CC5C4
     Copy OK
No errors occurred
AccurateRip summary
Track  1  accurately ripped (confidence 1)  [5DF5B8AD]
Track  2  accurately ripped (confidence 1)  [41E75239]
Track  3  accurately ripped (confidence 1)  [280D8499]
Track  4  accurately ripped (confidence 1)  [876277D7]
Track  5  accurately ripped (confidence 1)  [7A3E3630]
Track  6  accurately ripped (confidence 1)  [4F992DF9]
Track  7  accurately ripped (confidence 1)  [048341DA]
Track  8  accurately ripped (confidence 1)  [A015FBF6]
Track  9  accurately ripped (confidence 1)  [BC294753]
Track 10  accurately ripped (confidence 1)  [89FE856E]
Track 11  accurately ripped (confidence 1)  [96429BD8]
Track 12  accurately ripped (confidence 1)  [50122F61]
All tracks accurately ripped
End of status report

auCDtect

-----------------------
DON'T MODIFY THIS FILE
-----------------------
PERFORMER: auCDtect Task Manager, ver. 1.5.1RC6 build 1.5.1.7
Copyright (c) 2008-2010 y-soft. All rights reserved
http://y-soft.org
ANALYZER: auCDtect: CD records authenticity detector, version 0.8.2
Copyright (c) 2004 Oleg Berngardt. All rights reserved.
Copyright (c) 2004 Alexander Djourik. All rights reserved.
FILE: Haddaway - The Album.flac
  Size: 378659678 Hash: A88EFAF87D85157D2ED41F6B46B1A7C6 Accuracy: -m0
  Conclusion: CDDA 99%
  Signature: 87034F9EA83C8E7CAC85B3C09A064501A7D598D8

The Drive (1995&#41;

Треклист:
01. Fly Away (4:06)
02. I Know (4:31)
03. Breakaway (4:41)
04. Lover Be Thy Name (3:50)
05. Waiting For A Better World (4:24)
06. Give It Up (4:17)
07. Catch A Fire (4:13)
08. Desert Prayer (5:53)
09. The First Cut Is The Deepest (4:25)
10. Baby Don't Go (3:55)
11. Freedom Is (4:17)
12. Another Day Without You (4:44)
13. Fly Away (Tinmans Smooth Landing Mix) (5:14)
Продолжительность: 00:58:31
Каталог: BVCP-843 (74321-29668-2)

EAC-Log

Exact Audio Copy V0.99 prebeta 5 from 4. May 2009
EAC extraction logfile from 6. November 2011, 21:20
Haddaway / The Drive
Used drive  : ASUS    DRW-20B1ST   Adapter: 2  ID: 0
Read mode               : Secure
Utilize accurate stream : Yes
Defeat audio cache      : Yes
Make use of C2 pointers : No
Read offset correction                      : 6
Overread into Lead-In and Lead-Out          : No
Fill up missing offset samples with silence : Yes
Delete leading and trailing silent blocks   : No
Null samples used in CRC calculations       : Yes
Used interface                              : Installed external ASPI interface
Used output format              : User Defined Encoder
Selected bitrate                : 32 kBit/s
Quality                         : High
Add ID3 tag                     : No
Command line compressor         : C:\Program Files\Exact Audio Copy\Flac\flac.exe
Additional command line options : -T "DATE=%y" -T"GENRE=%m" -8 -V %s
TOC of the extracted CD
     Track |   Start  |  Length  | Start sector | End sector
    ---------------------------------------------------------
        1  |  0:00.37 |  4:06.33 |        37    |    18519
        2  |  4:06.70 |  4:30.40 |     18520    |    38809
        3  |  8:37.35 |  4:41.27 |     38810    |    59911
        4  | 13:18.62 |  3:50.25 |     59912    |    77186
        5  | 17:09.12 |  4:24.13 |     77187    |    96999
        6  | 21:33.25 |  4:17.25 |     97000    |   116299
        7  | 25:50.50 |  4:12.67 |    116300    |   135266
        8  | 30:03.42 |  5:53.33 |    135267    |   161774
        9  | 35:57.00 |  4:24.45 |    161775    |   181619
       10  | 40:21.45 |  3:54.40 |    181620    |   199209
       11  | 44:16.10 |  4:17.02 |    199210    |   218486
       12  | 48:33.12 |  4:43.63 |    218487    |   239774
       13  | 53:17.00 |  5:14.37 |    239775    |   263361
Range status and errors
Selected range
     Filename D:\Haddaway - The Drive.wav
     Peak level 100.0 %
     Range quality 100.0 %
     Test CRC D7F0DF42
     Copy CRC D7F0DF42
     Copy OK
No errors occurred
AccurateRip summary
Track  1  not present in database
Track  2  not present in database
Track  3  not present in database
Track  4  not present in database
Track  5  not present in database
Track  6  not present in database
Track  7  not present in database
Track  8  not present in database
Track  9  not present in database
Track 10  not present in database
Track 11  not present in database
Track 12  not present in database
Track 13  not present in database
None of the tracks are present in the AccurateRip database
End of status report

auCDtect

-----------------------
DON'T MODIFY THIS FILE
-----------------------
PERFORMER: auCDtect Task Manager, ver. 1.5.1RC6 build 1.5.1.7
Copyright (c) 2008-2010 y-soft. All rights reserved
http://y-soft.org
ANALYZER: auCDtect: CD records authenticity detector, version 0.8.2
Copyright (c) 2004 Oleg Berngardt. All rights reserved.
Copyright (c) 2004 Alexander Djourik. All rights reserved.
FILE: Haddaway - The Drive.flac
  Size: 434021382 Hash: 00E36DBF7877693DC85F72479C3EFF85 Accuracy: -m0
  Conclusion: CDDA 100%
  Signature: F8BC60A76DC4AFA925FA2A22B9AB63C38B63679B
-
Яндекс.Метрика
Рейтинг@Mail.ru