[ Сегодня на трекере фрилич! Идет свободное скачивание без начисления Download ]

Bobby Summer - 2 Albums (1999,2002) /Avex Inc. Japan/ [FLAC|Lossless]<Euro House,Pop,Dance,Latin>

 

Создавать темы 17-Дек-2014 11:54

-Bobby Summer - 2 Albums (Japanese edition) Жанр: Euro-House,Pop,Dance,Latin
Лейбл: Remixed Records
Изготовитель: Avex Inc. (Avex Trax)
Каталог: под спойлерами
Страна-производитель дисков: Japan
Года изданий: 1999,2002
Тип рипа: EAC (Img+Cue+Log)
Аудио кодек: FLAC [*.flac]
Битрейт: Lossless
Продолжительность: 01:56:24
Источник (релизёр): Рипы с собственных CD
Наличие сканов: Да
Размер: 1,16 Гб-Исполнитель : Bobby Summer - Настоящее имя:
Christian Mats Mikael Lindh (Кристиан Мэтс Микаэль Линд),
Родился: 12.04.1972, Стокгольм, Швеция.
--Альбомы

1999 - Like A Superstar

Треклист:
01. Jabba Jabba (3:25)
02. Mariella (3:07)
03. Bring Your Love (3:11)
04. La Mexicana (3:17)
05. La Di Da - Tu Est Ma Fille (2:55)
06. Oh My Darling (3:09)
07. Jessica (3:01)
08. I Want You Back (2:59)
09. Senorita (3:09)
10. Open Your Eyes (3:22)
11. Can I Call U Sometime (3:38)
12. Partytime (3:27)
13. 2 Late (2:37)
Bonus tracks:
14. Oh My Darling (Sezam's Hard On Mix) (7:17)
15. Oh My Darling (DJ Dean's Go Away Mix) (6:28)
Продолжительность: 00:55:00
Каталог: AVCD-11727

EAC-Log

Exact Audio Copy V0.99 prebeta 5 from 4. May 2009
EAC extraction logfile from 29. July 2012, 21:49
Bobby Summer / Like A Superstar
Used drive  : ASUS    DRW-20B1ST   Adapter: 2  ID: 0
Read mode               : Secure
Utilize accurate stream : Yes
Defeat audio cache      : Yes
Make use of C2 pointers : No
Read offset correction                      : 6
Overread into Lead-In and Lead-Out          : No
Fill up missing offset samples with silence : Yes
Delete leading and trailing silent blocks   : No
Null samples used in CRC calculations       : Yes
Used interface                              : Installed external ASPI interface
Used output format              : User Defined Encoder
Selected bitrate                : 32 kBit/s
Quality                         : High
Add ID3 tag                     : No
Command line compressor         : C:\Program Files\Exact Audio Copy\Flac\flac.exe
Additional command line options : -T "DATE=%y" -T"GENRE=%m" -8 -V %s
TOC of the extracted CD
     Track |   Start  |  Length  | Start sector | End sector
    ---------------------------------------------------------
        1  |  0:00.00 |  3:24.67 |         0    |    15366
        2  |  3:24.67 |  3:07.00 |     15367    |    29391
        3  |  6:31.67 |  3:10.43 |     29392    |    43684
        4  |  9:42.35 |  3:16.62 |     43685    |    58446
        5  | 12:59.22 |  2:54.63 |     58447    |    71559
        6  | 15:54.10 |  3:09.15 |     71560    |    85749
        7  | 19:03.25 |  3:01.12 |     85750    |    99336
        8  | 22:04.37 |  2:58.38 |     99337    |   112724
        9  | 25:03.00 |  3:08.47 |    112725    |   126871
       10  | 28:11.47 |  3:22.10 |    126872    |   142031
       11  | 31:33.57 |  3:37.38 |    142032    |   158344
       12  | 35:11.20 |  3:26.45 |    158345    |   173839
       13  | 38:37.65 |  2:37.12 |    173840    |   185626
       14  | 41:15.02 |  7:17.33 |    185627    |   218434
       15  | 48:32.35 |  6:28.17 |    218435    |   247551
Range status and errors
Selected range
     Filename D:\Bobby Summer - Like A Superstar.wav
     Peak level 99.2 %
     Range quality 99.9 %
     Test CRC 61460831
     Copy CRC 61460831
     Copy OK
No errors occurred
AccurateRip summary
Track  1  not present in database
Track  2  not present in database
Track  3  not present in database
Track  4  not present in database
Track  5  not present in database
Track  6  not present in database
Track  7  not present in database
Track  8  not present in database
Track  9  not present in database
Track 10  not present in database
Track 11  not present in database
Track 12  not present in database
Track 13  not present in database
Track 14  not present in database
Track 15  not present in database
None of the tracks are present in the AccurateRip database
End of status report

auCDtect

-----------------------
DON'T MODIFY THIS FILE
-----------------------
PERFORMER: auCDtect Task Manager, ver. 1.5.1RC6 build 1.5.1.7
Copyright (c) 2008-2010 y-soft. All rights reserved
http://y-soft.org
ANALYZER: auCDtect: CD records authenticity detector, version 0.8.2
Copyright (c) 2004 Oleg Berngardt. All rights reserved.
Copyright (c) 2004 Alexander Djourik. All rights reserved.
FILE: Bobby Summer - Like A Superstar.flac
  Size: 423232055 Hash: 53AC6A40FECE72ED6C6D1DED8278D8EE Accuracy: -m0
  Conclusion: CDDA 100%
  Signature: 10F66A1F5ED805E1FCBEDE9244EEFB776B8D3DAA

2002 - Casanova!

Треклист:
01. Sunshine Girl (3:18)
02. Everytime (3:09)
03. Casanova (3:45)
04. Friday Night (2:40)
05. Alive! (3:17)
06. Look In My Eyes (feat. Pandora) (4:00)
07. Forever My Love (3:03)
08. Ultra Dance (3:20)
09. Crash Boom Bang (3:21)
10. Bobby Summer Time (3:04)
11. One And Only Love (3:33)
12. Bambaloo (3:39)
13. Can't Take My Eyes Off Of You (3:43)
14. I Miss You (3:37)
15. Sunny Holiday (Bonus Track) (3:23)
Bonus tracks:
16. Sunshine Girl (Henry & Glitter Mix) (3:33)
17. Sunshine Girl (Soma's Disco Mix) (6:59)
Продолжительность: 01:01:23
Каталог: AVCD-17134
Диск с защитой от копирования - Copy Control CD
Из CUE-файла удалена информация о треке
№ 18 (TOC of the extracted CD)

EAC-Log

Exact Audio Copy V0.99 prebeta 5 from 4. May 2009
EAC extraction logfile from 1. August 2012, 20:01
Bobby Summer / Casanova!
Used drive  : ASUS    DRW-20B1ST   Adapter: 2  ID: 0
Read mode               : Secure
Utilize accurate stream : Yes
Defeat audio cache      : Yes
Make use of C2 pointers : No
Read offset correction                      : 6
Overread into Lead-In and Lead-Out          : No
Fill up missing offset samples with silence : Yes
Delete leading and trailing silent blocks   : No
Null samples used in CRC calculations       : Yes
Used interface                              : Installed external ASPI interface
Used output format              : User Defined Encoder
Selected bitrate                : 32 kBit/s
Quality                         : High
Add ID3 tag                     : No
Command line compressor         : C:\Program Files\Exact Audio Copy\Flac\flac.exe
Additional command line options : -T "DATE=%y" -T"GENRE=%m" -8 -V %s
TOC of the extracted CD
     Track |   Start  |  Length  | Start sector | End sector
    ---------------------------------------------------------
        1  |  0:00.00 |  3:18.12 |         0    |    14861
        2  |  3:18.12 |  3:08.73 |     14862    |    29034
        3  |  6:27.10 |  3:45.25 |     29035    |    45934
        4  | 10:12.35 |  2:39.52 |     45935    |    57911
        5  | 12:52.12 |  3:17.13 |     57912    |    72699
        6  | 16:09.25 |  3:59.60 |     72700    |    90684
        7  | 20:09.10 |  3:02.57 |     90685    |   104391
        8  | 23:11.67 |  3:19.73 |    104392    |   119389
        9  | 26:31.65 |  3:20.50 |    119390    |   134439
       10  | 29:52.40 |  3:03.72 |    134440    |   148236
       11  | 32:56.37 |  3:33.35 |    148237    |   164246
       12  | 36:29.72 |  3:39.15 |    164247    |   180686
       13  | 40:09.12 |  3:43.03 |    180687    |   197414
       14  | 43:52.15 |  3:37.15 |    197415    |   213704
       15  | 47:29.30 |  3:22.52 |    213705    |   228906
       16  | 50:52.07 |  3:33.05 |    228907    |   244886
       17  | 54:25.12 |  6:58.48 |    244887    |   276284
       18  | 63:55.60 | 10:02.15 |    287685    |   332849
Range status and errors
Selected range
     Filename D:\Bobby Summer - Casanova!.wav
     Peak level 100.0 %
     Range quality 100.0 %
     Test CRC 4FC15B7D
     Copy CRC 4FC15B7D
     Copy OK
No errors occurred
AccurateRip summary
Track  1  not present in database
Track  2  not present in database
Track  3  not present in database
Track  4  not present in database
Track  5  not present in database
Track  6  not present in database
Track  7  not present in database
Track  8  not present in database
Track  9  not present in database
Track 10  not present in database
Track 11  not present in database
Track 12  not present in database
Track 13  not present in database
Track 14  not present in database
Track 15  not present in database
Track 16  not present in database
Track 17  not present in database
None of the tracks are present in the AccurateRip database
End of status report

auCDtect

-----------------------
DON'T MODIFY THIS FILE
-----------------------
PERFORMER: auCDtect Task Manager, ver. 1.5.1RC6 build 1.5.1.7
Copyright (c) 2008-2010 y-soft. All rights reserved
http://y-soft.org
ANALYZER: auCDtect: CD records authenticity detector, version 0.8.2
Copyright (c) 2004 Oleg Berngardt. All rights reserved.
Copyright (c) 2004 Alexander Djourik. All rights reserved.
FILE: Bobby Summer - Casanova!.flac
  Size: 488431309 Hash: 7BBFD0986DB7C3079B7754E645D27755 Accuracy: -m0
  Conclusion: CDDA 100%
  Signature: CB0D17EFF19EAFD52CD1553E829AE41692453840
-
Яндекс.Метрика
Рейтинг@Mail.ru