Petra (September) - Teen Queen (2000) [FLAC|Lossless]<Еurodance,Europop,Euro House>

 

Создавать темы 17-Дек-2014 11:54

-Petra - Teen Queen Жанр: Еurodance,Europop,Euro-House
Лейбл: Edler Music AB
Изготовитель: UFO Records
Каталог: UFOCD 2029
Страна-производитель диска: Sweden
Год издания: 2000
Тип рипа: EAC (Img+Cue+Log)
Аудио кодек: FLAC [*.flac]
Битрейт: Lossless
Продолжительность: 00:38:21
Источник (релизёр): Рипы с собственных CD
Наличие сканов: Да
Размер: 350 Мб
Треклист:
01. Laser Beams (3:27)
02. Candy Kisses (3:29)
03. We Two Belong Together (3:25)
04. La Dee Daa Daa (3:26)
05. Will You Be Mine (3:29)
06. Teen Queen (3:23)
07. Sunny Day (3:26)
08. Wild Wild Heart (3:37)
09. Bim Bam Boom (3:23)
10. Queen Of The Night (3:47)
11. You Win (3:29)
О исполнителе: настоящее имя певицы Petra Linnea Paula Marklund,
известна так же под псевдонимами Berdie и September.

Отчёт ЕАС&#58;

Exact Audio Copy V0.99 prebeta 5 from 4. May 2009
EAC extraction logfile from 4. January 2012, 14:35
Petra / Teen Queen
Used drive  : ASUS    DRW-20B1ST   Adapter: 2  ID: 0
Read mode               : Secure
Utilize accurate stream : Yes
Defeat audio cache      : Yes
Make use of C2 pointers : No
Read offset correction                      : 6
Overread into Lead-In and Lead-Out          : No
Fill up missing offset samples with silence : Yes
Delete leading and trailing silent blocks   : No
Null samples used in CRC calculations       : Yes
Used interface                              : Installed external ASPI interface
Used output format              : User Defined Encoder
Selected bitrate                : 32 kBit/s
Quality                         : High
Add ID3 tag                     : No
Command line compressor         : C:\Program Files\Exact Audio Copy\Flac\flac.exe
Additional command line options : -T "DATE=%y" -T"GENRE=%m" -8 -V %s
TOC of the extracted CD
     Track |   Start  |  Length  | Start sector | End sector
    ---------------------------------------------------------
        1  |  0:00.00 |  3:27.34 |         0    |    15558
        2  |  3:27.34 |  3:28.38 |     15559    |    31196
        3  |  6:55.72 |  3:24.72 |     31197    |    46568
        4  | 10:20.69 |  3:25.52 |     46569    |    61995
        5  | 13:46.46 |  3:29.00 |     61996    |    77670
        6  | 17:15.46 |  3:23.21 |     77671    |    92916
        7  | 20:38.67 |  3:25.60 |     92917    |   108351
        8  | 24:04.52 |  3:37.28 |    108352    |   124654
        9  | 27:42.05 |  3:22.38 |    124655    |   139842
       10  | 31:04.43 |  3:47.04 |    139843    |   156871
       11  | 34:51.47 |  3:29.28 |    156872    |   172574
Range status and errors
Selected range
     Filename D:\Petra - Teen Queen.wav
     Peak level 98.8 %
     Range quality 100.0 %
     Test CRC 62AD745F
     Copy CRC 62AD745F
     Copy OK
No errors occurred
AccurateRip summary
Track  1  not present in database
Track  2  not present in database
Track  3  not present in database
Track  4  not present in database
Track  5  not present in database
Track  6  not present in database
Track  7  not present in database
Track  8  not present in database
Track  9  not present in database
Track 10  not present in database
Track 11  not present in database
None of the tracks are present in the AccurateRip database
End of status report

Отчёт auCDtectTaskManager&#58;

-----------------------
DON'T MODIFY THIS FILE
-----------------------
PERFORMER: auCDtect Task Manager, ver. 1.5.1RC6 build 1.5.1.7
Copyright (c) 2008-2010 y-soft. All rights reserved
http://y-soft.org
ANALYZER: auCDtect: CD records authenticity detector, version 0.8.2
Copyright (c) 2004 Oleg Berngardt. All rights reserved.
Copyright (c) 2004 Alexander Djourik. All rights reserved.
FILE: Petra - Teen Queen.flac
  Size: 321438092 Hash: 51A5B8A71B39B198A83E42CBE07D40F2 Accuracy: -m0
  Conclusion: CDDA 100%
  Signature: 2DCED86D69048BA1F6C407BC7E8F5853E3BE8FEB
-
Яндекс.Метрика
Рейтинг@Mail.ru