[ Сегодня на трекере фрилич! Идет свободное скачивание без начисления Download ]

Blitzkids Mvt. - Silhouettes (2013) [FLAC|Lossless]<Electropop, Synthpop>

 

Создавать темы 17-Дек-2014 11:54

-Blitzkids Mvt. - Silhouettes (2013)- Страна: Germany
Год: 2013
Жанр: Electropop, Synthpop
Продолжительность: 00:43:13
Лейбл: Warner Music Group
Каталожный №: 5053105-6480-2-3
Сканы: Front. Back
Кодек: FLAC (tracks+.cue)
Битрейт: Lossless
Треклист:
01. Water [2:59]
02. Blinded [3:18]
03. Heart on the Line [3:42]
04. My Delirium [3:29]
05. Black & White [3:32]
06. Break Free [3:17]
07. Idiot [3:08]
08. Cold [3:21]
09. Mirror [4:24]
10. Electrify [3:43]
11. Hush [4:11]
12. Pegasus [4:08]-

Содержимое индексной карты (.cue&#41;&#58;

TITLE "Silhouettes"
PERFORMER "Blitzkids Mvt."
CATALOG 5053105643721
REM DATE "2013-02-15"
REM DISCID 8A0A200C
REM REPLAYGAIN_ALBUM_GAIN -9.71 dB
REM REPLAYGAIN_ALBUM_PEAK 0.988556
FILE "01 Water.flac" WAVE
  TRACK 01 AUDIO
    TITLE "Water"
    PERFORMER "Blitzkids Mvt."
    ISRC DEED31100001
    REM REPLAYGAIN_TRACK_GAIN -8.11 dB
    REM REPLAYGAIN_TRACK_PEAK 0.988556
    INDEX 01 00:00:00
FILE "02 Blinded.flac" WAVE
  TRACK 02 AUDIO
    TITLE "Blinded"
    PERFORMER "Blitzkids Mvt."
    ISRC DEED31000032
    REM REPLAYGAIN_TRACK_GAIN -9.56 dB
    REM REPLAYGAIN_TRACK_PEAK 0.988556
    INDEX 01 00:00:00
  TRACK 03 AUDIO
    TITLE "Heart on the Line"
    PERFORMER "Blitzkids Mvt."
    ISRC DEA621300005
    REM REPLAYGAIN_TRACK_GAIN -9.54 dB
    REM REPLAYGAIN_TRACK_PEAK 0.988556
    INDEX 00 03:17:35
FILE "03 Heart on the Line.flac" WAVE
    INDEX 01 00:00:00
FILE "04 My Delirium.flac" WAVE
  TRACK 04 AUDIO
    TITLE "My Delirium"
    PERFORMER "Blitzkids Mvt."
    ISRC DEA621300013
    REM REPLAYGAIN_TRACK_GAIN -10.15 dB
    REM REPLAYGAIN_TRACK_PEAK 0.988556
    INDEX 01 00:00:00
  TRACK 05 AUDIO
    TITLE "Black & White"
    PERFORMER "Blitzkids Mvt."
    ISRC DEA621300014
    REM REPLAYGAIN_TRACK_GAIN -8.81 dB
    REM REPLAYGAIN_TRACK_PEAK 0.988525
    INDEX 00 03:27:68
FILE "05 Black & White.flac" WAVE
    INDEX 01 00:00:00
  TRACK 06 AUDIO
    TITLE "Break Free"
    PERFORMER "Blitzkids Mvt."
    ISRC DEA621300015
    REM REPLAYGAIN_TRACK_GAIN -10.24 dB
    REM REPLAYGAIN_TRACK_PEAK 0.988556
    INDEX 00 03:30:18
FILE "06 Break Free.flac" WAVE
    INDEX 01 00:00:00
FILE "07 Idiot.flac" WAVE
  TRACK 07 AUDIO
    TITLE "Idiot"
    PERFORMER "Blitzkids Mvt."
    ISRC DEA621300016
    REM REPLAYGAIN_TRACK_GAIN -9.30 dB
    REM REPLAYGAIN_TRACK_PEAK 0.988525
    INDEX 01 00:00:00
  TRACK 08 AUDIO
    TITLE "Cold"
    PERFORMER "Blitzkids Mvt."
    ISRC DEA621200067
    REM REPLAYGAIN_TRACK_GAIN -9.71 dB
    REM REPLAYGAIN_TRACK_PEAK 0.988525
    INDEX 00 03:05:63
FILE "08 Cold.flac" WAVE
    INDEX 01 00:00:00
  TRACK 09 AUDIO
    TITLE "Mirror"
    PERFORMER "Blitzkids Mvt."
    ISRC DEA621300017
    REM REPLAYGAIN_TRACK_GAIN -10.18 dB
    REM REPLAYGAIN_TRACK_PEAK 0.977509
    INDEX 00 03:19:12
FILE "09 Mirror.flac" WAVE
    INDEX 01 00:00:00
  TRACK 10 AUDIO
    TITLE "Electrify"
    PERFORMER "Blitzkids Mvt."
    ISRC DEA621300018
    REM REPLAYGAIN_TRACK_GAIN -10.22 dB
    REM REPLAYGAIN_TRACK_PEAK 0.988556
    INDEX 00 04:22:21
FILE "10 Electrify.flac" WAVE
    INDEX 01 00:00:00
  TRACK 11 AUDIO
    TITLE "Hush"
    PERFORMER "Blitzkids Mvt."
    ISRC DEA621300019
    REM REPLAYGAIN_TRACK_GAIN -7.47 dB
    REM REPLAYGAIN_TRACK_PEAK 0.988556
    INDEX 00 03:42:18
FILE "11 Hush.flac" WAVE
    INDEX 01 00:00:00
  TRACK 12 AUDIO
    TITLE "Pegasus"
    PERFORMER "Blitzkids Mvt."
    ISRC DEA621300020
    REM REPLAYGAIN_TRACK_GAIN -9.67 dB
    REM REPLAYGAIN_TRACK_PEAK 0.988556
    INDEX 00 04:09:42
FILE "12 Pegasus.flac" WAVE
    INDEX 01 00:00:00

Отчёт XLD&#58;

X Lossless Decoder version 20130127 (142.3)
XLD extraction logfile from 2013-02-16 16:56:57 +0100
Blitzkids Mvt. / Silhouettes
Used drive : OPTIARC DVD RW AD-5630A (revision 1AHN)
Media type : Pressed CD
Ripper mode             : XLD Secure Ripper
Disable audio cache     : OK for the drive with a cache less than 1375KiB
Make use of C2 pointers : NO
Read offset correction  : 48
Max retry count         : 20
Gap status              : Analyzed, Appended
TOC of the extracted CD
     Track |   Start  |  Length  | Start sector | End sector
    ---------------------------------------------------------
        1  | 00:00:00 | 02:59:00 |         0    |    13424
        2  | 02:59:00 | 03:18:10 |     13425    |    28284
        3  | 06:17:10 | 03:42:11 |     28285    |    44945
        4  | 09:59:21 | 03:29:07 |     44946    |    60627
        5  | 13:28:28 | 03:31:59 |     60628    |    76511
        6  | 17:00:12 | 03:16:54 |     76512    |    91265
        7  | 20:16:66 | 03:07:53 |     91266    |   105343
        8  | 23:24:44 | 03:21:01 |    105344    |   120419
        9  | 26:45:45 | 04:24:32 |    120420    |   140251
       10  | 31:10:02 | 03:43:31 |    140252    |   157007
       11  | 34:53:33 | 04:11:32 |    157008    |   175864
       12  | 39:04:65 | 04:07:48 |    175865    |   194437
AccurateRip Summary
    Disc not found in AccurateRip DB.
All Tracks
    Album gain               : -9.71 dB
    Peak                     : 0.988556
    Statistics
        Read error                           : 0
        Jitter error (maybe fixed)           : 0
        Retry sector count                   : 0
        Damaged sector count                 : 0
Track 01
    Filename : /Volumes/WD MyBook/XLDImport/WCD/Blitzkids Mvt./[2013] Silhouettes [FLAC]/01 Water.flac
               /Volumes/WD MyBook/XLDImport/WCD/Blitzkids Mvt./[2013] Silhouettes [LAME MP3 (V0)]/01 Water.mp3
               /Volumes/WD MyBook/XLDImport/WCD/Blitzkids Mvt./[2013] Silhouettes [LAME MP3 (V2)]/01 Water.mp3
               /Volumes/WD MyBook/XLDImport/WCD/Blitzkids Mvt./[2013] Silhouettes [LAME MP3 (C320)]/01 Water.mp3
    Pre-gap length : 00:02:00
    Track gain               : -8.11 dB
    Peak                     : 0.988556
    CRC32 hash (test run)    : 7E30A65D
    CRC32 hash               : 7E30A65D
    CRC32 hash (skip zero)   : BB3D551D
    AccurateRip v1 signature : C284B968
    AccurateRip v2 signature : B6FBE87E
        ->Track not present in AccurateRip database.
    Statistics
        Read error                           : 0
        Jitter error (maybe fixed)           : 0
        Retry sector count                   : 0
        Damaged sector count                 : 0
Track 02
    Filename : /Volumes/WD MyBook/XLDImport/WCD/Blitzkids Mvt./[2013] Silhouettes [FLAC]/02 Blinded.flac
               /Volumes/WD MyBook/XLDImport/WCD/Blitzkids Mvt./[2013] Silhouettes [LAME MP3 (V0)]/02 Blinded.mp3
               /Volumes/WD MyBook/XLDImport/WCD/Blitzkids Mvt./[2013] Silhouettes [LAME MP3 (V2)]/02 Blinded.mp3
               /Volumes/WD MyBook/XLDImport/WCD/Blitzkids Mvt./[2013] Silhouettes [LAME MP3 (C320)]/02 Blinded.mp3
    Track gain               : -9.56 dB
    Peak                     : 0.988556
    CRC32 hash (test run)    : 840C1B11
    CRC32 hash               : 840C1B11
    CRC32 hash (skip zero)   : C66C2836
    AccurateRip v1 signature : A1E0FD3E
    AccurateRip v2 signature : A667FAA5
        ->Track not present in AccurateRip database.
    Statistics
        Read error                           : 0
        Jitter error (maybe fixed)           : 0
        Retry sector count                   : 0
        Damaged sector count                 : 0
Track 03
    Filename : /Volumes/WD MyBook/XLDImport/WCD/Blitzkids Mvt./[2013] Silhouettes [FLAC]/03 Heart on the Line.flac
               /Volumes/WD MyBook/XLDImport/WCD/Blitzkids Mvt./[2013] Silhouettes [LAME MP3 (V0)]/03 Heart on the Line.mp3
               /Volumes/WD MyBook/XLDImport/WCD/Blitzkids Mvt./[2013] Silhouettes [LAME MP3 (V2)]/03 Heart on the Line.mp3
               /Volumes/WD MyBook/XLDImport/WCD/Blitzkids Mvt./[2013] Silhouettes [LAME MP3 (C320)]/03 Heart on the Line.mp3
    Pre-gap length : 00:00:50
    Track gain               : -9.54 dB
    Peak                     : 0.988556
    CRC32 hash (test run)    : 9D27D532
    CRC32 hash               : 9D27D532
    CRC32 hash (skip zero)   : FE60DB39
    AccurateRip v1 signature : 345333ED
    AccurateRip v2 signature : 947A3AD5
        ->Track not present in AccurateRip database.
    Statistics
        Read error                           : 0
        Jitter error (maybe fixed)           : 0
        Retry sector count                   : 0
        Damaged sector count                 : 0
Track 04
    Filename : /Volumes/WD MyBook/XLDImport/WCD/Blitzkids Mvt./[2013] Silhouettes [FLAC]/04 My Delirium.flac
               /Volumes/WD MyBook/XLDImport/WCD/Blitzkids Mvt./[2013] Silhouettes [LAME MP3 (V0)]/04 My Delirium.mp3
               /Volumes/WD MyBook/XLDImport/WCD/Blitzkids Mvt./[2013] Silhouettes [LAME MP3 (V2)]/04 My Delirium.mp3
               /Volumes/WD MyBook/XLDImport/WCD/Blitzkids Mvt./[2013] Silhouettes [LAME MP3 (C320)]/04 My Delirium.mp3
    Track gain               : -10.15 dB
    Peak                     : 0.988556
    CRC32 hash (test run)    : 9FB97C21
    CRC32 hash               : 9FB97C21
    CRC32 hash (skip zero)   : AD5BFA49
    AccurateRip v1 signature : 1A77C6C4
    AccurateRip v2 signature : DE99A93E
        ->Track not present in AccurateRip database.
    Statistics
        Read error                           : 0
        Jitter error (maybe fixed)           : 0
        Retry sector count                   : 0
        Damaged sector count                 : 0
Track 05
    Filename : /Volumes/WD MyBook/XLDImport/WCD/Blitzkids Mvt./[2013] Silhouettes [FLAC]/05 Black & White.flac
               /Volumes/WD MyBook/XLDImport/WCD/Blitzkids Mvt./[2013] Silhouettes [LAME MP3 (V0)]/05 Black & White.mp3
               /Volumes/WD MyBook/XLDImport/WCD/Blitzkids Mvt./[2013] Silhouettes [LAME MP3 (V2)]/05 Black & White.mp3
               /Volumes/WD MyBook/XLDImport/WCD/Blitzkids Mvt./[2013] Silhouettes [LAME MP3 (C320)]/05 Black & White.mp3
    Pre-gap length : 00:01:14
    Track gain               : -8.81 dB
    Peak                     : 0.988525
    CRC32 hash (test run)    : 3AC4ED69
    CRC32 hash               : 3AC4ED69
    CRC32 hash (skip zero)   : 7ED41644
    AccurateRip v1 signature : 099851C8
    AccurateRip v2 signature : 4D5BF89B
        ->Track not present in AccurateRip database.
    Statistics
        Read error                           : 0
        Jitter error (maybe fixed)           : 0
        Retry sector count                   : 0
        Damaged sector count                 : 0
Track 06
    Filename : /Volumes/WD MyBook/XLDImport/WCD/Blitzkids Mvt./[2013] Silhouettes [FLAC]/06 Break Free.flac
               /Volumes/WD MyBook/XLDImport/WCD/Blitzkids Mvt./[2013] Silhouettes [LAME MP3 (V0)]/06 Break Free.mp3
               /Volumes/WD MyBook/XLDImport/WCD/Blitzkids Mvt./[2013] Silhouettes [LAME MP3 (V2)]/06 Break Free.mp3
               /Volumes/WD MyBook/XLDImport/WCD/Blitzkids Mvt./[2013] Silhouettes [LAME MP3 (C320)]/06 Break Free.mp3
    Pre-gap length : 00:01:41
    Track gain               : -10.24 dB
    Peak                     : 0.988556
    CRC32 hash (test run)    : BB5A7C6A
    CRC32 hash               : BB5A7C6A
    CRC32 hash (skip zero)   : 6ED1E885
    AccurateRip v1 signature : F2C689A1
    AccurateRip v2 signature : 0E4B6AA7
        ->Track not present in AccurateRip database.
    Statistics
        Read error                           : 0
        Jitter error (maybe fixed)           : 0
        Retry sector count                   : 0
        Damaged sector count                 : 0
Track 07
    Filename : /Volumes/WD MyBook/XLDImport/WCD/Blitzkids Mvt./[2013] Silhouettes [FLAC]/07 Idiot.flac
               /Volumes/WD MyBook/XLDImport/WCD/Blitzkids Mvt./[2013] Silhouettes [LAME MP3 (V0)]/07 Idiot.mp3
               /Volumes/WD MyBook/XLDImport/WCD/Blitzkids Mvt./[2013] Silhouettes [LAME MP3 (V2)]/07 Idiot.mp3
               /Volumes/WD MyBook/XLDImport/WCD/Blitzkids Mvt./[2013] Silhouettes [LAME MP3 (C320)]/07 Idiot.mp3
    Track gain               : -9.30 dB
    Peak                     : 0.988525
    CRC32 hash (test run)    : 13B96351
    CRC32 hash               : 13B96351
    CRC32 hash (skip zero)   : EC44C6DE
    AccurateRip v1 signature : 89FF98C0
    AccurateRip v2 signature : 40C62DD3
        ->Track not present in AccurateRip database.
    Statistics
        Read error                           : 0
        Jitter error (maybe fixed)           : 0
        Retry sector count                   : 0
        Damaged sector count                 : 0
Track 08
    Filename : /Volumes/WD MyBook/XLDImport/WCD/Blitzkids Mvt./[2013] Silhouettes [FLAC]/08 Cold.flac
               /Volumes/WD MyBook/XLDImport/WCD/Blitzkids Mvt./[2013] Silhouettes [LAME MP3 (V0)]/08 Cold.mp3
               /Volumes/WD MyBook/XLDImport/WCD/Blitzkids Mvt./[2013] Silhouettes [LAME MP3 (V2)]/08 Cold.mp3
               /Volumes/WD MyBook/XLDImport/WCD/Blitzkids Mvt./[2013] Silhouettes [LAME MP3 (C320)]/08 Cold.mp3
    Pre-gap length : 00:01:65
    Track gain               : -9.71 dB
    Peak                     : 0.988525
    CRC32 hash (test run)    : D57239C5
    CRC32 hash               : D57239C5
    CRC32 hash (skip zero)   : B7715C61
    AccurateRip v1 signature : 158BDD26
    AccurateRip v2 signature : BF468358
        ->Track not present in AccurateRip database.
    Statistics
        Read error                           : 0
        Jitter error (maybe fixed)           : 0
        Retry sector count                   : 0
        Damaged sector count                 : 0
Track 09
    Filename : /Volumes/WD MyBook/XLDImport/WCD/Blitzkids Mvt./[2013] Silhouettes [FLAC]/09 Mirror.flac
               /Volumes/WD MyBook/XLDImport/WCD/Blitzkids Mvt./[2013] Silhouettes [LAME MP3 (V0)]/09 Mirror.mp3
               /Volumes/WD MyBook/XLDImport/WCD/Blitzkids Mvt./[2013] Silhouettes [LAME MP3 (V2)]/09 Mirror.mp3
               /Volumes/WD MyBook/XLDImport/WCD/Blitzkids Mvt./[2013] Silhouettes [LAME MP3 (C320)]/09 Mirror.mp3
    Pre-gap length : 00:01:64
    Track gain               : -10.18 dB
    Peak                     : 0.977509
    CRC32 hash (test run)    : AA9FCB9A
    CRC32 hash               : AA9FCB9A
    CRC32 hash (skip zero)   : FB1A2C3B
    AccurateRip v1 signature : 63A33E1B
    AccurateRip v2 signature : 476965E8
        ->Track not present in AccurateRip database.
    Statistics
        Read error                           : 0
        Jitter error (maybe fixed)           : 0
        Retry sector count                   : 0
        Damaged sector count                 : 0
Track 10
    Filename : /Volumes/WD MyBook/XLDImport/WCD/Blitzkids Mvt./[2013] Silhouettes [FLAC]/10 Electrify.flac
               /Volumes/WD MyBook/XLDImport/WCD/Blitzkids Mvt./[2013] Silhouettes [LAME MP3 (V0)]/10 Electrify.mp3
               /Volumes/WD MyBook/XLDImport/WCD/Blitzkids Mvt./[2013] Silhouettes [LAME MP3 (V2)]/10 Electrify.mp3
               /Volumes/WD MyBook/XLDImport/WCD/Blitzkids Mvt./[2013] Silhouettes [LAME MP3 (C320)]/10 Electrify.mp3
    Pre-gap length : 00:02:11
    Track gain               : -10.22 dB
    Peak                     : 0.988556
    CRC32 hash (test run)    : 32F051DA
    CRC32 hash               : 32F051DA
    CRC32 hash (skip zero)   : FD893E3A
    AccurateRip v1 signature : CE71F02A
    AccurateRip v2 signature : 5214C5E7
        ->Track not present in AccurateRip database.
    Statistics
        Read error                           : 0
        Jitter error (maybe fixed)           : 0
        Retry sector count                   : 0
        Damaged sector count                 : 0
Track 11
    Filename : /Volumes/WD MyBook/XLDImport/WCD/Blitzkids Mvt./[2013] Silhouettes [FLAC]/11 Hush.flac
               /Volumes/WD MyBook/XLDImport/WCD/Blitzkids Mvt./[2013] Silhouettes [LAME MP3 (V0)]/11 Hush.mp3
               /Volumes/WD MyBook/XLDImport/WCD/Blitzkids Mvt./[2013] Silhouettes [LAME MP3 (V2)]/11 Hush.mp3
               /Volumes/WD MyBook/XLDImport/WCD/Blitzkids Mvt./[2013] Silhouettes [LAME MP3 (C320)]/11 Hush.mp3
    Pre-gap length : 00:01:13
    Track gain               : -7.47 dB
    Peak                     : 0.988556
    CRC32 hash (test run)    : F7330AC3
    CRC32 hash               : F7330AC3
    CRC32 hash (skip zero)   : CE789A55
    AccurateRip v1 signature : C45FE7B8
    AccurateRip v2 signature : 9AA2DAF4
        ->Track not present in AccurateRip database.
    Statistics
        Read error                           : 0
        Jitter error (maybe fixed)           : 0
        Retry sector count                   : 0
        Damaged sector count                 : 0
Track 12
    Filename : /Volumes/WD MyBook/XLDImport/WCD/Blitzkids Mvt./[2013] Silhouettes [FLAC]/12 Pegasus.flac
               /Volumes/WD MyBook/XLDImport/WCD/Blitzkids Mvt./[2013] Silhouettes [LAME MP3 (V0)]/12 Pegasus.mp3
               /Volumes/WD MyBook/XLDImport/WCD/Blitzkids Mvt./[2013] Silhouettes [LAME MP3 (V2)]/12 Pegasus.mp3
               /Volumes/WD MyBook/XLDImport/WCD/Blitzkids Mvt./[2013] Silhouettes [LAME MP3 (C320)]/12 Pegasus.mp3
    Pre-gap length : 00:01:65
    Track gain               : -9.67 dB
    Peak                     : 0.988556
    CRC32 hash (test run)    : 43677D89
    CRC32 hash               : 43677D89
    CRC32 hash (skip zero)   : A8761DF5
    AccurateRip v1 signature : 8C333CEF
    AccurateRip v2 signature : 526024B6
        ->Track not present in AccurateRip database.
    Statistics
        Read error                           : 0
        Jitter error (maybe fixed)           : 0
        Retry sector count                   : 0
        Damaged sector count                 : 0
No errors occurred
End of status report

Отчёт auCDtect Task Manager&#58;

-----------------------
DON'T MODIFY THIS FILE
-----------------------
PERFORMER: auCDtect Task Manager, ver. 1.5.1RC3 build 1.5.1.4
Copyright (c) 2008-2010 y-soft. All rights reserved
http://y-soft.org
ANALYZER: auCDtect: CD records authenticity detector, version 0.8.2
Copyright (c) 2004 Oleg Berngardt. All rights reserved.
Copyright (c) 2004 Alexander Djourik. All rights reserved.
FILE: 12 Pegasus.flac
  Size: 30131752 Hash: 11B2E8994AF1C8C0AF4471EF1A7E7512 Accuracy: -m0
  Conclusion: CDDA 100%
  Signature: E634A76F52359C36A6AC37D038248B75D3B09943
FILE: 11 Hush.flac
  Size: 29791140 Hash: AE6F86CF237BC0E741375E7753E37478 Accuracy: -m0
  Conclusion: CDDA 99%
  Signature: 60011DC3E9866FFD136AE336ACC6A2D47C1093AF
FILE: 10 Electrify.flac
  Size: 29567503 Hash: 3E3F3EE0F0EF07B158D1C5CBEFE0BEAA Accuracy: -m0
  Conclusion: CDDA 99%
  Signature: EC36C41DCEEA70DBBF11E6ED6C181C99AC6AF4D9
FILE: 09 Mirror.flac
  Size: 34143252 Hash: 5835B344B3AD90EDE3FF9FA78CD7A019 Accuracy: -m0
  Conclusion: CDDA 100%
  Signature: 4630546A5D0412E27A7140F7BC954314ACA019F1
FILE: 08 Cold.flac
  Size: 24387011 Hash: 5F31B92F6A62043550DF2614EEF5E815 Accuracy: -m0
  Conclusion: CDDA 100%
  Signature: 9FEBF668425B3C96A264FFF46E7881ED4F038577
FILE: 07 Idiot.flac
  Size: 23797738 Hash: 323980AE87C282984803742F40D1D543 Accuracy: -m0
  Conclusion: CDDA 100%
  Signature: 966EAFF3C17B13BD012BDE870D2F3DF7231594AD
FILE: 06 Break Free.flac
  Size: 25846064 Hash: 09FFD8BCE0E58382333ABCDD0CB24507 Accuracy: -m0
  Conclusion: CDDA 100%
  Signature: 181EA329E647D12AB7BCD1AE1F7FFD89AEAA0254
FILE: 05 Black & White.flac
  Size: 25164609 Hash: D9C2F8073BAAB4B2486B508925D6E16B Accuracy: -m0
  Conclusion: CDDA 100%
  Signature: 6F82268B6326E9496C3459F32499B378BB94DB51
FILE: 04 My Delirium.flac
  Size: 27924957 Hash: 76E430724552B3BCCC140B59CFCE6221 Accuracy: -m0
  Conclusion: CDDA 100%
  Signature: CC738A2908480E5C532F6F5048ABB195DD3EB3C8
FILE: 03 Heart on the Line.flac
  Size: 26305750 Hash: B44FF694067C19F1B76BC801EDA79402 Accuracy: -m0
  Conclusion: CDDA 100%
  Signature: DC1A8B5334F3CBB22C3FEFC032A46D95E9285384
FILE: 02 Blinded.flac
  Size: 24773177 Hash: F7A33C63D1122B60D203E2D2B2BC217D Accuracy: -m0
  Conclusion: CDDA 100%
  Signature: 9F3CBFB9709A009B9DAFB16885888492261F2033
FILE: 01 Water.flac
  Size: 21860496 Hash: 60A73553C18FAD96214C085F66075A80 Accuracy: -m0
  Conclusion: CDDA 99%
  Signature: 280E746CC8E5C051BB0C1F1C545414A39412383F
-
Яндекс.Метрика
Рейтинг@Mail.ru