[ Сегодня на трекере фрилич! Идет свободное скачивание без начисления Download ]

O-Zone - DiscO-Zone (2005) /Avex Trax, Japan/ [FLAC|Lossless]<Europop, Euro-House, Dance>

 

Создавать темы 17-Дек-2014 11:54

-O-Zone - DiscO-Zone (Japanese edition) Жанр: Europop, Euro-House, Dance
Лейбл: Media Servises SRL, Time SRL
Изготовитель: Avex Trax
Каталог: AVCD-17830/B
Страна-производитель диска: Japan
Год издания: 2005
Тип рипа: EAC (Img+Cue+Log)
Аудио кодек: FLAC [*.flac]
Битрейт: Lossless
Продолжительность: 01:12:10
Источник (релизёр): Рипы с собственных CD
Наличие сканов: Да
Размер: 607 Мб
Треклист:
01. Dragostea Din Tei (3:39)
02. Fiesta De La Noche (4:06)
03. De Ce Plang Chitarele (4:15)
04. Printre Nori (3:47)
05. Oriunde Ai Fi (4:30)
06. Numai Tu (4:06)
07. Dar, Unde Esti (4:08)
08. Despre Tine (3:52)
09. Sarbatoarea Noptilor De Vara (3:58)
10. Nu Ma Las De Limba Noastra.... (3:56)
11. Crede-ma (4:47)
12. Dragostea Din Tei (Overhead Champion Remix) (6:46)
13. Dragostea Din Tei (DJ Kaya & DJ Kousuke Remix) (5:40)
14. Dragostea Din Tei (Eurobeat Remix) (4:10)
15. Dragostea Din Tei (Crystal Mix) (3:38)
16. Fiesta De La Noche (Dance Mix) (4:17)
17. Dragostea Din Tei (Karaoke) (2:35)

Отчёт EAC

Exact Audio Copy V0.99 prebeta 5 from 4. May 2009
EAC extraction logfile from 31. December 2011, 19:30
O-Zone / DiscO-Zone
Used drive  : ASUS    DRW-20B1ST   Adapter: 2  ID: 0
Read mode               : Secure
Utilize accurate stream : Yes
Defeat audio cache      : Yes
Make use of C2 pointers : No
Read offset correction                      : 6
Overread into Lead-In and Lead-Out          : No
Fill up missing offset samples with silence : Yes
Delete leading and trailing silent blocks   : No
Null samples used in CRC calculations       : Yes
Used interface                              : Installed external ASPI interface
Used output format              : User Defined Encoder
Selected bitrate                : 32 kBit/s
Quality                         : High
Add ID3 tag                     : No
Command line compressor         : C:\Program Files\Exact Audio Copy\Flac\flac.exe
Additional command line options : -T "DATE=%y" -T"GENRE=%m" -8 -V %s
TOC of the extracted CD
     Track |   Start  |  Length  | Start sector | End sector
    ---------------------------------------------------------
        1  |  0:00.00 |  3:38.50 |         0    |    16399
        2  |  3:38.50 |  4:06.12 |     16400    |    34861
        3  |  7:44.62 |  4:14.68 |     34862    |    53979
        4  | 11:59.55 |  3:47.22 |     53980    |    71026
        5  | 15:47.02 |  4:30.08 |     71027    |    91284
        6  | 20:17.10 |  4:06.12 |     91285    |   109746
        7  | 24:23.22 |  4:08.08 |    109747    |   128354
        8  | 28:31.30 |  3:52.00 |    128355    |   145754
        9  | 32:23.30 |  3:58.05 |    145755    |   163609
       10  | 36:21.35 |  3:55.55 |    163610    |   181289
       11  | 40:17.15 |  4:46.67 |    181290    |   202806
       12  | 45:04.07 |  6:46.00 |    202807    |   233256
       13  | 51:50.07 |  5:40.08 |    233257    |   258764
       14  | 57:30.15 |  4:09.47 |    258765    |   277486
       15  | 61:39.62 |  3:38.20 |    277487    |   293856
       16  | 65:18.07 |  4:17.10 |    293857    |   313141
       17  | 69:35.17 |  2:35.30 |    313142    |   324796
Range status and errors
Selected range
     Filename D:\O-Zone - DiscO-Zone.wav
     Peak level 100.0 %
     Range quality 100.0 %
     Test CRC 85B25EF4
     Copy CRC 85B25EF4
     Copy OK
No errors occurred
AccurateRip summary
Track  1  accurately ripped (confidence 2)  [8BF41599]
Track  2  accurately ripped (confidence 2)  [75983BA4]
Track  3  accurately ripped (confidence 2)  [32ACAA89]
Track  4  accurately ripped (confidence 2)  [F11ECB24]
Track  5  accurately ripped (confidence 2)  [0C1C0346]
Track  6  accurately ripped (confidence 2)  [1A483E3A]
Track  7  accurately ripped (confidence 2)  [8B725ECE]
Track  8  accurately ripped (confidence 2)  [B7E71AA6]
Track  9  accurately ripped (confidence 2)  [6BC50001]
Track 10  accurately ripped (confidence 2)  [F815AEE8]
Track 11  accurately ripped (confidence 2)  [75CE0052]
Track 12  accurately ripped (confidence 2)  [DC654928]
Track 13  accurately ripped (confidence 2)  [01A3B47C]
Track 14  accurately ripped (confidence 2)  [315CE373]
Track 15  accurately ripped (confidence 2)  [3D85D911]
Track 16  accurately ripped (confidence 2)  [B7E7A708]
Track 17  accurately ripped (confidence 2)  [64BFA78C]
All tracks accurately ripped
End of status report

Отчёт auCDtect

-----------------------
DON'T MODIFY THIS FILE
-----------------------
PERFORMER: auCDtect Task Manager, ver. 1.5.1RC6 build 1.5.1.7
Copyright (c) 2008-2010 y-soft. All rights reserved
http://y-soft.org
ANALYZER: auCDtect: CD records authenticity detector, version 0.8.2
Copyright (c) 2004 Oleg Berngardt. All rights reserved.
Copyright (c) 2004 Alexander Djourik. All rights reserved.
FILE: O-Zone - DiscO-Zone.flac
  Size: 538796405 Hash: 410AD3EFDFE576EBE1F04214DEEFB413 Accuracy: -m0
  Conclusion: CDDA 100%
  Signature: 21DED2DE1D0E348D1B7A3993B69D889EAFE6EA6E
-
Яндекс.Метрика
Рейтинг@Mail.ru