Modern Talking - The 80s Hit Box (3CD Box Set) (2010) [FLAC|Lossless]<Synth-pop, Disco>

 

Создавать темы 17-Дек-2014 11:54

-Modern Talking - The 80s Hit Box (3CD Box Set) (2010)- Год: 2010
Label: Sony Music Enterainment Germany GmbH
Жанр: Synth-pop, Disco
Продолжительность: 01:18:12, 01:18:31, 01:18:29
Кодек: FLAC (image + .cue)
Битрейт: Lossless-Треклист:
CD1:
01. Cheri, Cheri Lady [03:49]
02. Lonely Tears In Chinatown [03:31]
03. Atlantis Is Calling (S.O.S. For Love) [03:50]
04. Heaven Will Know [04:03]
05. Just We Two (Mona Lisa) [03:56]
06. You're My Heart, You're My Soul (Single Version) [03:50]
07. Don't Let It Get You Down [03:41]
08. Do You Wanna [04:22]
09. Angie's Heart [03:40]
10. Jet Airliner (Radio Version) [04:19]
11. With A Little Love [03:35]
12. Only Love Can Break My Heart [03:38]
13. Ten Thousand Lonely Drums [03:32]
14. Don't Lose My Number [03:12]
15. You And Me [04:02]
16. Sweet Little Sheila [03:04]
17. Who Will Save The World [03:46]
18. One In A Million [03:42]
19. Charlene [03:51]
20. Just Like An Angel [03:15]
21. The Angels Sing In New York City [03:35]

Далее&#58;

CD2:
01. Brother Louie [03:44]
02. Locomotion Tango [03:50]
03. Diamonds Never Made A Lady [04:04]
04. In 100 Years [03:59]
05. Don't Worry [03:35]
06. Wild Wild Water [04:19]
07. You Can Win If You Want (Special Single Remix) [03:43]
08. Arabian Gold [03:42]
09. Riding On A White Swan [03:53]
10. Geronimo's Cadillac [03:18]
11. Save Me - Don't Break Me [03:48]
12. Let's Talk About Love [03:55]
13. Give Me Peace On Earth [04:13]
14. Lucky Guy [03:30]
15. Lady Lai [04:57]
16. In Shaire [03:45]
17. There's Too Much Blue In Missing You [04:41]
18. Slow Motion [03:41]
19. Hey You [03:21]
20. Stranded In The Middle Of Nowhere [04:33]
CD3:
01. You're My Heart, You're My Soul (Maxi Version) [05:37]
02. You Can Win If You Want (Speciall Dance Version) [05:21]
03. Cheri, Cheri Lady (Special Dance Version) [04:52]
04. Brother Louie (Special Long Version) [05:20]
05. Atlantis Is Calling (S.O.S. For Love) Extended Version) [05:24]
06. Geronimo's Cadillac (Long Vocal Version) [05:02]
07. Het Airliner (Fasten-Seat-Belt-Mix) [05:56]
08. In 100 Years (Long Version - Future Mix) [06:39]
09. You're My Heart, You're My Soul [04:02]
10. You Can Win If You Want [03:44]
11. Cheri, Cheri Lady [03:37]
12. Brother Louie [04:07]
13. Atlantis Is Calling (S.O.S. For Love) [03:59]
14. Geronimo's Cadillac [03:15]
15. Jet Airliner [03:53]
16. In 100 Years (Part II) [04:08]
17. Lucky Guy [03:35]

Отчёт ЕАС&#58;

CD1
Exact Audio Copy V0.99 prebeta 4 from 23. January 2008
Отчёт EAC об извлечении, выполненном 20. апреля 2011, 22:51
Modern Talking / The 80s Hit Box (CD1)
Дисковод: _NEC DVD_RW ND-4550A Adapter: 3 ID: 0
Режим чтения : Достоверность
Использование точного потока : Да
Отключение кэша аудио : Да
Использование указателей C2 : Нет
Коррекция смещения при чтении : 48
Способность читать области Lead-in и Lead-out : Нет
Заполнение пропущенных сэмплов тишиной : Да
Удаление блоков с тишиной в начале и конце : Нет
При вычислениях CRC использовались нулевые сэмплы : Да
Интерфейс : Установленный внешний ASPI-интерфейс
Выходной формат : Пользовательский кодировщик
Выбранный битрейт : 1024 kBit/s
Качество : Высокий
Добавление ID3-тэга : Нет
Утилита сжатия : C:\Program Files\Exact Audio Copy\FLAC\FLAC.EXE
Дополнительные параметры : -6 -V -T "ARTIST=%a" -T "TITLE=%t" -T "ALBUM=%g" -T "DATE=%y" -T "TRACKNUMBER=%n" -T "GENRE=%m" -T "COMMENT=%e" %s -o %d
TOC извлечённого CD
Трек | Старт | Длительность | Начальный сектор | Конечный сектор
---------------------------------------------------------------------
1 | 0:00.00 | 3:49.06 | 0 | 17180
2 | 3:49.06 | 3:31.12 | 17181 | 33017
3 | 7:20.18 | 3:50.29 | 33018 | 50296
4 | 11:10.47 | 4:03.05 | 50297 | 68526
5 | 15:13.52 | 3:56.18 | 68527 | 86244
6 | 19:09.70 | 3:49.51 | 86245 | 103470
7 | 22:59.46 | 3:41.26 | 103471 | 120071
8 | 26:40.72 | 4:21.64 | 120072 | 139710
9 | 31:02.61 | 3:39.71 | 139711 | 156206
10 | 34:42.57 | 4:18.50 | 156207 | 175606
11 | 39:01.32 | 3:35.22 | 175607 | 191753
12 | 42:36.54 | 3:37.48 | 191754 | 208076
13 | 46:14.27 | 3:31.40 | 208077 | 223941
14 | 49:45.67 | 3:11.44 | 223942 | 238310
15 | 52:57.36 | 4:02.31 | 238311 | 256491
16 | 56:59.67 | 3:04.24 | 256492 | 270315
17 | 60:04.16 | 3:45.42 | 270316 | 287232
18 | 63:49.58 | 3:42.20 | 287233 | 303902
19 | 67:32.03 | 3:50.62 | 303903 | 321214
20 | 71:22.65 | 3:14.66 | 321215 | 335830
21 | 74:37.56 | 3:34.42 | 335831 | 351922
Характеристики диапазона извлечения и сообщения об ошибках
Выбранный диапазон
Имя файла D:\Новая папка\CD1\Modern Talking - The 80s Hit Box (CD1).wav
Пиковый уровень 99.9 %
Качество диапазона 100.0 %
CRC теста C3CC004D
CRC копии C3CC004D
Копирование... OK
Ошибок не произошло
AccurateRip: сводка
Трек 1 нет в базе данных
Трек 2 нет в базе данных
Трек 3 нет в базе данных
Трек 4 нет в базе данных
Трек 5 нет в базе данных
Трек 6 нет в базе данных
Трек 7 нет в базе данных
Трек 8 нет в базе данных
Трек 9 нет в базе данных
Трек 10 нет в базе данных
Трек 11 нет в базе данных
Трек 12 нет в базе данных
Трек 13 нет в базе данных
Трек 14 нет в базе данных
Трек 15 нет в базе данных
Трек 16 нет в базе данных
Трек 17 нет в базе данных
Трек 18 нет в базе данных
Трек 19 нет в базе данных
Трек 20 нет в базе данных
Трек 21 нет в базе данных
Ни одного трека нет в базе AccurateRip
Конец отчёта
CD2
Exact Audio Copy V0.99 prebeta 4 from 23. January 2008
Отчёт EAC об извлечении, выполненном 21. апреля 2011, 7:35
Modern Talking / The 80s Hit Box (CD2)
Дисковод: _NEC DVD_RW ND-4550A Adapter: 3 ID: 0
Режим чтения : Достоверность
Использование точного потока : Да
Отключение кэша аудио : Да
Использование указателей C2 : Нет
Коррекция смещения при чтении : 48
Способность читать области Lead-in и Lead-out : Нет
Заполнение пропущенных сэмплов тишиной : Да
Удаление блоков с тишиной в начале и конце : Нет
При вычислениях CRC использовались нулевые сэмплы : Да
Интерфейс : Установленный внешний ASPI-интерфейс
Выходной формат : Пользовательский кодировщик
Выбранный битрейт : 1024 kBit/s
Качество : Высокий
Добавление ID3-тэга : Нет
Утилита сжатия : C:\Program Files\Exact Audio Copy\FLAC\FLAC.EXE
Дополнительные параметры : -6 -V -T "ARTIST=%a" -T "TITLE=%t" -T "ALBUM=%g" -T "DATE=%y" -T "TRACKNUMBER=%n" -T "GENRE=%m" -T "COMMENT=%e" %s -o %d
TOC извлечённого CD
Трек | Старт | Длительность | Начальный сектор | Конечный сектор
---------------------------------------------------------------------
1 | 0:00.00 | 3:43.47 | 0 | 16771
2 | 3:43.47 | 3:50.13 | 16772 | 34034
3 | 7:33.60 | 4:04.05 | 34035 | 52339
4 | 11:37.65 | 3:58.72 | 52340 | 70261
5 | 15:36.62 | 3:35.20 | 70262 | 86406
6 | 19:12.07 | 4:18.66 | 86407 | 105822
7 | 23:30.73 | 3:43.16 | 105823 | 122563
8 | 27:14.14 | 3:42.01 | 122564 | 139214
9 | 30:56.15 | 3:53.27 | 139215 | 156716
10 | 34:49.42 | 3:18.03 | 156717 | 171569
11 | 38:07.45 | 3:47.50 | 171570 | 188644
12 | 41:55.20 | 3:54.38 | 188645 | 206232
13 | 45:49.58 | 4:13.18 | 206233 | 225225
14 | 50:03.01 | 3:30.32 | 225226 | 241007
15 | 53:33.33 | 4:57.14 | 241008 | 263296
16 | 58:30.47 | 3:44.41 | 263297 | 280137
17 | 62:15.13 | 4:41.07 | 280138 | 301219
18 | 66:56.20 | 3:40.62 | 301220 | 317781
19 | 70:37.07 | 3:21.20 | 317782 | 332876
20 | 73:58.27 | 4:32.41 | 332877 | 353317
Характеристики диапазона извлечения и сообщения об ошибках
Выбранный диапазон
Имя файла D:\Новая папка\CD2\Modern Talking - The 80s Hit Box (CD2).wav
Пиковый уровень 99.0 %
Качество диапазона 100.0 %
CRC теста 0E92E942
CRC копии 0E92E942
Копирование... OK
Ошибок не произошло
AccurateRip: сводка
Трек 1 нет в базе данных
Трек 2 нет в базе данных
Трек 3 нет в базе данных
Трек 4 нет в базе данных
Трек 5 нет в базе данных
Трек 6 нет в базе данных
Трек 7 нет в базе данных
Трек 8 нет в базе данных
Трек 9 нет в базе данных
Трек 10 нет в базе данных
Трек 11 нет в базе данных
Трек 12 нет в базе данных
Трек 13 нет в базе данных
Трек 14 нет в базе данных
Трек 15 нет в базе данных
Трек 16 нет в базе данных
Трек 17 нет в базе данных
Трек 18 нет в базе данных
Трек 19 нет в базе данных
Трек 20 нет в базе данных
Ни одного трека нет в базе AccurateRip
CD3
Exact Audio Copy V0.99 prebeta 4 from 23. January 2008
Отчёт EAC об извлечении, выполненном 21. апреля 2011, 11:58
Modern Talking / The 80s Hit Box (CD3)
Дисковод: _NEC DVD_RW ND-4550A Adapter: 3 ID: 0
Режим чтения : Достоверность
Использование точного потока : Да
Отключение кэша аудио : Да
Использование указателей C2 : Нет
Коррекция смещения при чтении : 48
Способность читать области Lead-in и Lead-out : Нет
Заполнение пропущенных сэмплов тишиной : Да
Удаление блоков с тишиной в начале и конце : Нет
При вычислениях CRC использовались нулевые сэмплы : Да
Интерфейс : Установленный внешний ASPI-интерфейс
Выходной формат : Пользовательский кодировщик
Выбранный битрейт : 1024 kBit/s
Качество : Высокий
Добавление ID3-тэга : Нет
Утилита сжатия : C:\Program Files\Exact Audio Copy\FLAC\FLAC.EXE
Дополнительные параметры : -6 -V -T "ARTIST=%a" -T "TITLE=%t" -T "ALBUM=%g" -T "DATE=%y" -T "TRACKNUMBER=%n" -T "GENRE=%m" -T "COMMENT=%e" %s -o %d
TOC извлечённого CD
Трек | Старт | Длительность | Начальный сектор | Конечный сектор
---------------------------------------------------------------------
1 | 0:00.00 | 5:36.58 | 0 | 25257
2 | 5:36.58 | 5:20.69 | 25258 | 49326
3 | 10:57.52 | 4:51.63 | 49327 | 71214
4 | 15:49.40 | 5:19.39 | 71215 | 95178
5 | 21:09.04 | 5:24.24 | 95179 | 119502
6 | 26:33.28 | 5:01.61 | 119503 | 142138
7 | 31:35.14 | 5:55.42 | 142139 | 168805
8 | 37:30.56 | 6:39.29 | 168806 | 198759
9 | 44:10.10 | 4:02.10 | 198760 | 216919
10 | 48:12.20 | 3:43.49 | 216920 | 233693
11 | 51:55.69 | 3:37.17 | 233694 | 249985
12 | 55:33.11 | 4:06.47 | 249986 | 268482
13 | 59:39.58 | 3:59.21 | 268483 | 286428
14 | 63:39.04 | 3:14.45 | 286429 | 301023
15 | 66:53.49 | 3:52.45 | 301024 | 318468
16 | 70:46.19 | 4:07.60 | 318469 | 337053
17 | 74:54.04 | 3:34.61 | 337054 | 353164
Характеристики диапазона извлечения и сообщения об ошибках
Выбранный диапазон
Имя файла D:\Новая папка\CD3\Modern Talking - The 80s Hit Box (CD3).wav
Пиковый уровень 100.0 %
Качество диапазона 100.0 %
CRC теста 9C9D0A63
CRC копии 9C9D0A63
Копирование... OK
Ошибок не произошло
AccurateRip: сводка
Трек 1 нет в базе данных
Трек 2 нет в базе данных
Трек 3 нет в базе данных
Трек 4 нет в базе данных
Трек 5 нет в базе данных
Трек 6 нет в базе данных
Трек 7 нет в базе данных
Трек 8 нет в базе данных
Трек 9 нет в базе данных
Трек 10 нет в базе данных
Трек 11 нет в базе данных
Трек 12 нет в базе данных
Трек 13 нет в базе данных
Трек 14 нет в базе данных
Трек 15 нет в базе данных
Трек 16 нет в базе данных
Трек 17 нет в базе данных
Ни одного трека нет в базе AccurateRip
Конец отчёта

Отчёт auCDtect Task manager&#58;

CD1
-----------------------
DON'T MODIFY THIS FILE
-----------------------
PERFORMER: auCDtect Task Manager, ver. 1.5.1RC4 build 1.5.1.5
Copyright (c) 2008-2010 y-soft. All rights reserved
http://y-soft.org
ANALYZER: auCDtect: CD records authenticity detector, version 0.8.2
Copyright (c) 2004 Oleg Berngardt. All rights reserved.
Copyright (c) 2004 Alexander Djourik. All rights reserved.
FILE: Modern Talking - The 80s Hit Box (CD1).flac
  Size: 599645162 Hash: A69AC6919414AE3A83A9163B9574B1E3 Accuracy: -m0
  Conclusion: CDDA 100%
  Signature: 136C7C040AB2043D0CB29EFDA327DD1ED954645C
CD2
-----------------------
DON'T MODIFY THIS FILE
-----------------------
PERFORMER: auCDtect Task Manager, ver. 1.5.1RC4 build 1.5.1.5
Copyright (c) 2008-2010 y-soft. All rights reserved
http://y-soft.org
ANALYZER: auCDtect: CD records authenticity detector, version 0.8.2
Copyright (c) 2004 Oleg Berngardt. All rights reserved.
Copyright (c) 2004 Alexander Djourik. All rights reserved.
FILE: Modern Talking - The 80s Hit Box (CD2).flac
  Size: 603871894 Hash: 49D38A36352C921038F5580CF4B56352 Accuracy: -m0
  Conclusion: CDDA 100%
  Signature: 18467EE66CB3FF622C0CAEEC2B9F257D5B0DB00D
CD3
-----------------------
DON'T MODIFY THIS FILE
-----------------------
PERFORMER: auCDtect Task Manager, ver. 1.5.1RC4 build 1.5.1.5
Copyright (c) 2008-2010 y-soft. All rights reserved
http://y-soft.org
ANALYZER: auCDtect: CD records authenticity detector, version 0.8.2
Copyright (c) 2004 Oleg Berngardt. All rights reserved.
Copyright (c) 2004 Alexander Djourik. All rights reserved.
FILE: Modern Talking - The 80s Hit Box (CD3).flac
  Size: 596923712 Hash: F4650036FCFEB882EF9D6DEFBF7CBC17 Accuracy: -m0
  Conclusion: CDDA 100%
  Signature: A466D7FC94A33052E184848256DC92EAD4EB10C0
-
Яндекс.Метрика
Рейтинг@Mail.ru