Boney M. - Ultimate 2.0 (2011) [FLAC|Lossless]<Disco, Euro-Pop>

 

Создавать темы 17-Дек-2014 11:54

-Boney M. - Ultimate 2.0 (2011)- Год: 1975-2010
Жанр: Disco, Euro-Pop
Страна: Германия-Страна-производитель диска: Франция
Год издания: 28.06.2011
Издатель (лейбл): Sony Music Entertainment
Номер по каталогу: 88697 84794 2
Аудиокодек: FLAC (*.flac)
Тип рипа: tracks+.cue
Битрейт аудио: lossless
Продолжительность: 02:22:20
Наличие сканов в содержимом раздачи: да -Описание: Ultimate 2.0 включает в себя такие композиции как “Daddy Cool,” “Sunny,” “Ma Baker,” “Belfast,” “Rivers of Babylon” “Rasputin,” “Mary’s Boy Child,” и “Gotta Go Home” - все эти синглы достигли первых мест в родной для Boney M. Германии.
Тогда как второй диск, получивший название: "Boney M. Goes Club," ориентирован на клубных фанатов Boney M. Здесь собраны популярнейшие клубные миксы. Обратите внимание на "Who the F**k Is Wikileaks" - этакий злободневный соцзаказ!-

CD1

Трек лист: Продолжительность:01:06:11;
01. Daddy Cool (3:29)
02. Rasputin (4:27)
03. Rivers of Babylon (4:17)
04. Ma Baker (4:07)
05. Hooray! Hooray! It's a Holi-Holiday (3:57)
06. Sunny (3:59)
07. Happy Song (4:00)
08. Belfast (3:29)
09. Brown Girl in the Ring (4:02)
10. Kalimba de Luna (4:14)
11. Felicidad (Margherita) (2:53)
12. Mary's Boy Child/Oh My Lord (4:03)
13. Baby Do You Wanna Bump (2:29)
14. Painter Man (3:18)
15. Gotta Go Home (2:34)
16. No Woman No Cry (4:19)
17. Sunny (Mousse T. Radio Mix) (3:21)
18. A Moment of Love (3:13)

Содержание индексной карты (.CUE&#41;

REM GENRE Disco
REM DATE 2011
REM COMMENT EAC Secure Mode, Test & Copy, AccurateRip, FLAC -8
PERFORMER "Boney M."
TITLE "Ultimate 2.0 CD1 - Classic Hits"
FILE "01 - Daddy Cool.flac" WAVE
  TRACK 01 AUDIO
    TITLE "Daddy Cool"
    PERFORMER "Boney M."
    INDEX 01 00:00:00
FILE "02 - Rasputin.flac" WAVE
  TRACK 02 AUDIO
    TITLE "Rasputin"
    PERFORMER "Boney M."
    INDEX 01 00:00:00
FILE "03 - Rivers of Babylon.flac" WAVE
  TRACK 03 AUDIO
    TITLE "Rivers of Babylon"
    PERFORMER "Boney M."
    INDEX 01 00:00:00
FILE "04 - Ma Baker.flac" WAVE
  TRACK 04 AUDIO
    TITLE "Ma Baker"
    PERFORMER "Boney M."
    INDEX 01 00:00:00
FILE "05 - Hooray! Hooray! It's a Holi-Holiday.flac" WAVE
  TRACK 05 AUDIO
    TITLE "Hooray! Hooray! It's a Holi-Holiday"
    PERFORMER "Boney M."
    INDEX 01 00:00:00
FILE "06 - Sunny.flac" WAVE
  TRACK 06 AUDIO
    TITLE "Sunny"
    PERFORMER "Boney M."
    INDEX 01 00:00:00
FILE "07 - Happy Song.flac" WAVE
  TRACK 07 AUDIO
    TITLE "Happy Song"
    PERFORMER "Boney M."
    INDEX 01 00:00:00
FILE "08 - Belfast.flac" WAVE
  TRACK 08 AUDIO
    TITLE "Belfast"
    PERFORMER "Boney M."
    INDEX 01 00:00:00
FILE "09 - Brown Girl in the Ring.flac" WAVE
  TRACK 09 AUDIO
    TITLE "Brown Girl in the Ring"
    PERFORMER "Boney M."
    INDEX 01 00:00:00
FILE "10 - Kalimba de Luna.flac" WAVE
  TRACK 10 AUDIO
    TITLE "Kalimba de Luna"
    PERFORMER "Boney M."
    INDEX 01 00:00:00
FILE "11 - Felicidad (Margherita).flac" WAVE
  TRACK 11 AUDIO
    TITLE "Felicidad (Margherita)"
    PERFORMER "Boney M."
    INDEX 01 00:00:00
FILE "12 - Mary's Boy Child-Oh My Lord.flac" WAVE
  TRACK 12 AUDIO
    TITLE "Mary's Boy Child/Oh My Lord"
    PERFORMER "Boney M."
    INDEX 01 00:00:00
FILE "13 - Baby Do You Wanna Bump.flac" WAVE
  TRACK 13 AUDIO
    TITLE "Baby Do You Wanna Bump"
    PERFORMER "Boney M."
    INDEX 01 00:00:00
FILE "14 - Painter Man.flac" WAVE
  TRACK 14 AUDIO
    TITLE "Painter Man"
    PERFORMER "Boney M."
    INDEX 01 00:00:00
FILE "15 - Gotta Go Home.flac" WAVE
  TRACK 15 AUDIO
    TITLE "Gotta Go Home"
    PERFORMER "Boney M."
    INDEX 01 00:00:00
FILE "16 - No Woman No Cry.flac" WAVE
  TRACK 16 AUDIO
    TITLE "No Woman No Cry"
    PERFORMER "Boney M."
    INDEX 01 00:00:00
FILE "17 - Sunny (Mousse T. Radio Mix).flac" WAVE
  TRACK 17 AUDIO
    TITLE "Sunny (Mousse T. Radio Mix)"
    PERFORMER "Boney M."
    INDEX 01 00:00:00
FILE "18 - A Moment of Love.flac" WAVE
  TRACK 18 AUDIO
    TITLE "A Moment of Love"
    PERFORMER "Boney M."
    INDEX 01 00:00:00

Отчёт ЕАС&#58;

Exact Audio Copy V1.0 beta 1 from 15. November 2010
EAC extraction logfile from 12. July 2011, 10:34
Boney M. / Classic Hits CD1
Used drive  : PLEXTOR CD-R   PREMIUM2   Adapter: 4  ID: 0
Read mode               : Secure
Utilize accurate stream : Yes
Defeat audio cache      : Yes
Make use of C2 pointers : No
Read offset correction                      : 30
Overread into Lead-In and Lead-Out          : Yes
Fill up missing offset samples with silence : Yes
Delete leading and trailing silent blocks   : No
Null samples used in CRC calculations       : Yes
Used interface                              : Native Win32 interface for Win NT & 2000
Gap handling                                : Appended to previous track
Used output format              : User Defined Encoder
Selected bitrate                : 1024 kBit/s
Quality                         : High
Add ID3 tag                     : No
Command line compressor         : C:\Program Files (x86)\Exact Audio Copy\Flac\flac.exe
Additional command line options : -8 -V -T "ARTIST=%a" -T "TITLE=%t" -T "ALBUM=%g" -T "DATE=%y" -T "TRACKNUMBER=%n" -T "TOTALTRACKS=%x" -T "GENRE=%m" -T "ALBUMARTIST=%v" -T "ALBUM ARTIST=%v" -T "COMMENT=EAC Secure Mode, Test & Copy, AccurateRip, FLAC -8" %s
TOC of the extracted CD
     Track |   Start  |  Length  | Start sector | End sector
    ---------------------------------------------------------
        1  |  0:00.00 |  3:28.43 |         0    |    15642
        2  |  3:28.43 |  4:27.30 |     15643    |    35697
        3  |  7:55.73 |  4:17.00 |     35698    |    54972
        4  | 12:12.73 |  4:07.30 |     54973    |    73527
        5  | 16:20.28 |  3:57.00 |     73528    |    91302
        6  | 20:17.28 |  3:58.45 |     91303    |   109197
        7  | 24:15.73 |  3:59.45 |    109198    |   127167
        8  | 28:15.43 |  3:28.60 |    127168    |   142827
        9  | 31:44.28 |  4:02.15 |    142828    |   160992
       10  | 35:46.43 |  4:14.15 |    160993    |   180057
       11  | 40:00.58 |  2:53.00 |    180058    |   193032
       12  | 42:53.58 |  4:03.00 |    193033    |   211257
       13  | 46:56.58 |  2:28.45 |    211258    |   222402
       14  | 49:25.28 |  3:18.30 |    222403    |   237282
       15  | 52:43.58 |  2:33.60 |    237283    |   248817
       16  | 55:17.43 |  4:19.30 |    248818    |   268272
       17  | 59:36.73 |  3:21.15 |    268273    |   283362
       18  | 62:58.13 |  3:13.03 |    283363    |   297840
Track  1
     Filename J:\EAC\01 - Daddy Cool.wav
     Pre-gap length  0:00:02.00
     Peak level 99.9 %
     Extraction speed 2.1 X
     Track quality 100.0 %
     Test CRC 85B72D79
     Copy CRC 85B72D79
     Track not present in AccurateRip database
     Copy OK
Track  2
     Filename J:\EAC\02 - Rasputin.wav
     Pre-gap length  0:00:00.72
     Peak level 99.9 %
     Extraction speed 2.3 X
     Track quality 100.0 %
     Test CRC D937EC7F
     Copy CRC D937EC7F
     Track not present in AccurateRip database
     Copy OK
Track  3
     Filename J:\EAC\03 - Rivers Of Babylon.wav
     Pre-gap length  0:00:00.74
     Peak level 99.9 %
     Extraction speed 2.3 X
     Track quality 99.9 %
     Test CRC AA6724D9
     Copy CRC AA6724D9
     Track not present in AccurateRip database
     Copy OK
Track  4
     Filename J:\EAC\04 - Ma Baker.wav
     Pre-gap length  0:00:00.74
     Peak level 99.9 %
     Extraction speed 2.4 X
     Track quality 99.9 %
     Test CRC 0A0D7063
     Copy CRC 0A0D7063
     Track not present in AccurateRip database
     Copy OK
Track  5
     Filename J:\EAC\05 - Hooray! Hooray! It's A Holi-Holiday.wav
     Pre-gap length  0:00:00.71
     Peak level 99.9 %
     Extraction speed 2.6 X
     Track quality 100.0 %
     Test CRC F40745F9
     Copy CRC F40745F9
     Track not present in AccurateRip database
     Copy OK
Track  6
     Filename J:\EAC\06 - Sunny.wav
     Pre-gap length  0:00:00.72
     Peak level 99.9 %
     Extraction speed 2.3 X
     Track quality 100.0 %
     Test CRC 23FF4638
     Copy CRC 23FF4638
     Track not present in AccurateRip database
     Copy OK
Track  7
     Filename J:\EAC\07 - Happy Song.wav
     Pre-gap length  0:00:00.72
     Peak level 99.9 %
     Extraction speed 2.3 X
     Track quality 100.0 %
     Test CRC 4073E234
     Copy CRC 4073E234
     Track not present in AccurateRip database
     Copy OK
Track  8
     Filename J:\EAC\08 - Belfast.wav
     Pre-gap length  0:00:00.72
     Peak level 99.9 %
     Extraction speed 2.3 X
     Track quality 100.0 %
     Test CRC 871CB52D
     Copy CRC 871CB52D
     Track not present in AccurateRip database
     Copy OK
Track  9
     Filename J:\EAC\09 - Brown Girl In The Ring.wav
     Pre-gap length  0:00:00.72
     Peak level 99.9 %
     Extraction speed 2.3 X
     Track quality 100.0 %
     Test CRC 35C70319
     Copy CRC 35C70319
     Track not present in AccurateRip database
     Copy OK
Track 10
     Filename J:\EAC\10 - Kalimba De Luna.wav
     Pre-gap length  0:00:00.72
     Peak level 99.9 %
     Extraction speed 2.2 X
     Track quality 100.0 %
     Test CRC A5373E13
     Copy CRC A5373E13
     Track not present in AccurateRip database
     Copy OK
Track 11
     Filename J:\EAC\11 - Felicidad (Margherita).wav
     Pre-gap length  0:00:00.71
     Peak level 99.9 %
     Extraction speed 2.7 X
     Track quality 99.9 %
     Test CRC 5F2D5C2C
     Copy CRC 5F2D5C2C
     Track not present in AccurateRip database
     Copy OK
Track 12
     Filename J:\EAC\12 - Mary's Boy Child - Oh My Lord.wav
     Pre-gap length  0:00:00.73
     Peak level 99.9 %
     Extraction speed 2.4 X
     Track quality 100.0 %
     Test CRC 2E941D20
     Copy CRC 2E941D20
     Track not present in AccurateRip database
     Copy OK
Track 13
     Filename J:\EAC\13 - Baby Do You Wanna Bump.wav
     Pre-gap length  0:00:00.72
     Peak level 99.9 %
     Extraction speed 2.4 X
     Track quality 100.0 %
     Test CRC 12DE748B
     Copy CRC 12DE748B
     Track not present in AccurateRip database
     Copy OK
Track 14
     Filename J:\EAC\14 - Painter Man.wav
     Pre-gap length  0:00:00.73
     Peak level 99.9 %
     Extraction speed 2.4 X
     Track quality 100.0 %
     Test CRC 98678A55
     Copy CRC 98678A55
     Track not present in AccurateRip database
     Copy OK
Track 15
     Filename J:\EAC\15 - Gotta Go Home.wav
     Pre-gap length  0:00:00.72
     Peak level 99.9 %
     Extraction speed 2.5 X
     Track quality 100.0 %
     Test CRC 940A307E
     Copy CRC 940A307E
     Track not present in AccurateRip database
     Copy OK
Track 16
     Filename J:\EAC\16 - No Woman No Cry.wav
     Pre-gap length  0:00:00.72
     Peak level 99.9 %
     Extraction speed 2.2 X
     Track quality 100.0 %
     Test CRC 66AF2A74
     Copy CRC 66AF2A74
     Track not present in AccurateRip database
     Copy OK
Track 17
     Filename J:\EAC\17 - Sunny (Mouse T. Radio Mix).wav
     Pre-gap length  0:00:00.73
     Peak level 99.9 %
     Extraction speed 2.2 X
     Track quality 100.0 %
     Test CRC 0F114809
     Copy CRC 0F114809
     Track not present in AccurateRip database
     Copy OK
Track 18
     Filename J:\EAC\18 - A Moment Of Love.wav
     Pre-gap length  0:00:00.73
     Peak level 99.9 %
     Extraction speed 2.2 X
     Track quality 100.0 %
     Test CRC AF354279
     Copy CRC AF354279
     Track not present in AccurateRip database
     Copy OK
None of the tracks are present in the AccurateRip database
No errors occurred
End of status report

Отчёт auCDtect Task manager&#58;

-----------------------
DON'T MODIFY THIS FILE
-----------------------
PERFORMER: auCDtect Task Manager, ver. 1.5.1RC6 build 1.5.1.7
Copyright (c) 2008-2010 y-soft. All rights reserved
http://y-soft.org
ANALYZER: auCDtect: CD records authenticity detector, version 0.8.2
Copyright (c) 2004 Oleg Berngardt. All rights reserved.
Copyright (c) 2004 Alexander Djourik. All rights reserved.
FILE: 18 - A Moment of Love.flac
  Size: 23650369 Hash: E1120D09D77FFCCFAA3A1C8E4FF8D991 Accuracy: -m0
  Conclusion: CDDA 100%
  Signature: 1C9232FD199CC2D3EC6436141F046828B933B953
FILE: 17 - Sunny (Mousse T. Radio Mix).flac
  Size: 25392944 Hash: F7E084CB42CEA5B102D89583233E59FA Accuracy: -m0
  Conclusion: CDDA 99%
  Signature: E4A8E15890C27DC83FCECBD0BDEA1FD3013326C1
FILE: 16 - No Woman No Cry.flac
  Size: 32007500 Hash: 76EB917A6E0D6EDD020AB60BE89FCF67 Accuracy: -m0
  Conclusion: CDDA 100%
  Signature: F2EFD54728099085AA68FB4880CAD8A3FD07DB1D
FILE: 15 - Gotta Go Home.flac
  Size: 19703361 Hash: CEAFBA0A8361200CF07A18C9E1DE2BA2 Accuracy: -m0
  Conclusion: CDDA 100%
  Signature: C7896A6E826BCA43CEC1E06B5504DF6808B599C1
FILE: 14 - Painter Man.flac
  Size: 26358728 Hash: 14F0F34C1AD98793EAF3EBEA926E6FC8 Accuracy: -m0
  Conclusion: CDDA 99%
  Signature: 217FEC55E73E3C7A8CF0F3E6A39186DC695C17B2
FILE: 13 - Baby Do You Wanna Bump.flac
  Size: 20278711 Hash: E7CC58FE98274D276FD8C97B9EC8AC5F Accuracy: -m0
  Conclusion: CDDA 100%
  Signature: AF9AAFD5D944A66B8B4A01034D9E31B8D317E081
FILE: 12 - Mary's Boy Child-Oh My Lord.flac
  Size: 32156131 Hash: A44FD5EC3C6DF21DAB705FDD6653F0BA Accuracy: -m0
  Conclusion: CDDA 100%
  Signature: 081A8A9E169A4151E403F248C3593BBF68DC458C
FILE: 11 - Felicidad (Margherita).flac
  Size: 21785378 Hash: FF762D19DA2F1F1F1685B4A71E685894 Accuracy: -m0
  Conclusion: CDDA 100%
  Signature: C08301F39BCE94026D9856812B37770F81B098A8
FILE: 10 - Kalimba de Luna.flac
  Size: 31914396 Hash: 2FC299936BA0722B67057C3FA6C949A5 Accuracy: -m0
  Conclusion: CDDA 100%
  Signature: AE8E6948F84792B447FD8912259AE2D8E9CBE32F
FILE: 09 - Brown Girl in the Ring.flac
  Size: 31754422 Hash: 81EDCCBA3546F755D24E9A29F271BD3E Accuracy: -m0
  Conclusion: CDDA 100%
  Signature: 95B1DC988F6A0C5ABC87546835E456225F05203E
FILE: 08 - Belfast.flac
  Size: 26990218 Hash: 6246A510081420828CA9FAC0F4F2AA85 Accuracy: -m0
  Conclusion: CDDA 100%
  Signature: FF5AEE3044043D462BEB7416952636119D9C0319
FILE: 07 - Happy Song.flac
  Size: 30705513 Hash: 7A12A8159F4EF68F56632C3FE84793AC Accuracy: -m0
  Conclusion: CDDA 100%
  Signature: 40CA7D6BCA51130502765CE8149CBFEFC2F351F6
FILE: 06 - Sunny.flac
  Size: 31173261 Hash: 954AAEF4EF8C7E8E0F6D3C578274E8CB Accuracy: -m0
  Conclusion: CDDA 100%
  Signature: 1D311FEBEF7A087FAE52993E8349D02B8D1985DD
FILE: 05 - Hooray! Hooray! It's a Holi-Holiday.flac
  Size: 31230725 Hash: 9F3C8729B7CB783592D329603F76697B Accuracy: -m0
  Conclusion: CDDA 100%
  Signature: B71AA145831B540FB02D302262F1770398EEDF93
FILE: 04 - Ma Baker.flac
  Size: 32199212 Hash: F6852FAD92D851CA48139A8E46D42A07 Accuracy: -m0
  Conclusion: CDDA 100%
  Signature: 62850C1264F996CB970A8A8E6EEFC5B7B4ED1F57
FILE: 03 - Rivers of Babylon.flac
  Size: 32853396 Hash: 83A5DF27B599CC8F9B6A4AD679CDF175 Accuracy: -m0
  Conclusion: CDDA 100%
  Signature: 5E1B26A194EFE8BC17DD4487A8D7032EA19FB2F2
FILE: 02 - Rasputin.flac
  Size: 35219005 Hash: FB72102407C19182F1865065F3CA9354 Accuracy: -m0
  Conclusion: CDDA 100%
  Signature: 32F8552B26C79E4257CE4E86A9B0AAC9472A1129
FILE: 01 - Daddy Cool.flac
  Size: 27262126 Hash: DA1557248DB2104D0B1D96B03221B2C0 Accuracy: -m0
  Conclusion: CDDA 100%
  Signature: 5651065662B265CA16138899DC903A3C5037E8C7

CD2

Продолжительность:01:16:09
01. Barbra Streisand (Mega Mashup-Mix-Medley vs. La Bouche, No Mercy, Chicken Soup) (15:53)
02. Boney M. (Mega Mashup-Mix-Medley vs. No Mercy, Eruption, La Bouche) (14:44)
03. Ma Baker (Club Mix) (4:56)
04. Daddy Cool (Club Mix) (4:42)
05. Sunny (Club Mix) (4:10)
06. Rivers of Babylon (Club Mix) (4:15)
07. Gotta Go Home (Club Mix) (4:27)
08. Rasputin (Club Mix) (4:33)
09. Happy Song (Club Mix) (3:57)
10. Barbra Streisand vs. Marilyn Monroe (Club Mix) (3:14)
11. Who the F**k Is Wikileaks (4:14)
12. Be Bop A Lula (House Mix/Radio Edit) (3:51)
13. Barbra Streisand (Radio Edit by Duck Sauce) (3:13)

Содержание индексной карты (.CUE&#41;

REM GENRE Disco
REM DATE 2011
REM COMMENT EAC Secure Mode, Test & Copy, AccurateRip, FLAC -8
PERFORMER "Boney M."
TITLE "Ultimate 2.0 CD2 - Boney M. Goes Club"
FILE "01 - Barbra Streisand (Mega Mashup-Mix-Medley vs. La Bouche, No Mercy, Chicken Soup).flac" WAVE
  TRACK 01 AUDIO
    TITLE "Barbra Streisand (Mega Mashup-Mix-Medley vs. La Bouche, No Mercy, Chicken Soup)"
    PERFORMER "Boney M."
    INDEX 01 00:00:00
FILE "02 - Boney M. (Mega Mashup-Mix-Medley vs. No Mercy, Eruption, La Bouche).flac" WAVE
  TRACK 02 AUDIO
    TITLE "Boney M. (Mega Mashup-Mix-Medley vs. No Mercy, Eruption, La Bouche)"
    PERFORMER "Boney M."
    INDEX 01 00:00:00
FILE "03 - Ma Baker (Club Mix).flac" WAVE
  TRACK 03 AUDIO
    TITLE "Ma Baker (Club Mix)"
    PERFORMER "Boney M."
    INDEX 01 00:00:00
FILE "04 - Daddy Cool (Club Mix).flac" WAVE
  TRACK 04 AUDIO
    TITLE "Daddy Cool (Club Mix)"
    PERFORMER "Boney M."
    INDEX 01 00:00:00
FILE "05 - Sunny (Club Mix).flac" WAVE
  TRACK 05 AUDIO
    TITLE "Sunny (Club Mix)"
    PERFORMER "Boney M."
    INDEX 01 00:00:00
FILE "06 - Rivers of Babylon (Club Mix).flac" WAVE
  TRACK 06 AUDIO
    TITLE "Rivers of Babylon (Club Mix)"
    PERFORMER "Boney M."
    INDEX 01 00:00:00
FILE "07 - Gotta Go Home (Club Mix).flac" WAVE
  TRACK 07 AUDIO
    TITLE "Gotta Go Home (Club Mix)"
    PERFORMER "Boney M."
    INDEX 01 00:00:00
FILE "08 - Rasputin (Club Mix).flac" WAVE
  TRACK 08 AUDIO
    TITLE "Rasputin (Club Mix)"
    PERFORMER "Boney M."
    INDEX 01 00:00:00
FILE "09 - Happy Song (Club Mix).flac" WAVE
  TRACK 09 AUDIO
    TITLE "Happy Song (Club Mix)"
    PERFORMER "Boney M."
    INDEX 01 00:00:00
FILE "10 - Barbra Streisand vs. Marilyn Monroe (Club Mix).flac" WAVE
  TRACK 10 AUDIO
    TITLE "Barbra Streisand vs. Marilyn Monroe (Club Mix)"
    PERFORMER "Boney M."
    INDEX 01 00:00:00
FILE "11 - Who the F..k Is Wikileaks.flac" WAVE
  TRACK 11 AUDIO
    TITLE "Who the F..k Is Wikileaks"
    PERFORMER "Boney M."
    INDEX 01 00:00:00
FILE "12 - Be Bop A Lula (House Mix-Radio Edit).flac" WAVE
  TRACK 12 AUDIO
    TITLE "Be Bop A Lula (House Mix/Radio Edit)"
    PERFORMER "Boney M."
    INDEX 01 00:00:00
FILE "13 - Barbra Streisand (Radio Edit by Duck Sauce).flac" WAVE
  TRACK 13 AUDIO
    TITLE "Barbra Streisand (Radio Edit by Duck Sauce)"
    PERFORMER "Boney M."
    INDEX 01 00:00:00

Отчёт ЕАС&#58;

Exact Audio Copy V1.0 beta 1 from 15. November 2010
EAC extraction logfile from 14. July 2011, 21:17
Boney M. / Boney M. Goes Club CD2
Used drive  : PLEXTOR CD-R   PREMIUM2   Adapter: 4  ID: 0
Read mode               : Secure
Utilize accurate stream : Yes
Defeat audio cache      : Yes
Make use of C2 pointers : No
Read offset correction                      : 30
Overread into Lead-In and Lead-Out          : Yes
Fill up missing offset samples with silence : Yes
Delete leading and trailing silent blocks   : No
Null samples used in CRC calculations       : Yes
Used interface                              : Native Win32 interface for Win NT & 2000
Gap handling                                : Appended to previous track
Used output format              : User Defined Encoder
Selected bitrate                : 1024 kBit/s
Quality                         : High
Add ID3 tag                     : No
Command line compressor         : C:\Program Files (x86)\Exact Audio Copy\Flac\flac.exe
Additional command line options : -8 -V -T "ARTIST=%a" -T "TITLE=%t" -T "ALBUM=%g" -T "DATE=%y" -T "TRACKNUMBER=%n" -T "TOTALTRACKS=%x" -T "GENRE=%m" -T "ALBUMARTIST=%v" -T "ALBUM ARTIST=%v" -T "COMMENT=EAC Secure Mode, Test & Copy, AccurateRip, FLAC -8" %s
TOC of the extracted CD
     Track |   Start  |  Length  | Start sector | End sector
    ---------------------------------------------------------
        1  |  0:00.00 | 15:53.00 |         0    |    71474
        2  | 15:53.00 | 14:44.15 |     71475    |   137789
        3  | 30:37.15 |  4:55.45 |    137790    |   159959
        4  | 35:32.60 |  4:42.15 |    159960    |   181124
        5  | 40:15.00 |  4:10.00 |    181125    |   199874
        6  | 44:25.00 |  4:15.00 |    199875    |   218999
        7  | 48:40.00 |  4:26.45 |    219000    |   238994
        8  | 53:06.45 |  4:33.00 |    238995    |   259469
        9  | 57:39.45 |  3:57.00 |    259470    |   277244
       10  | 61:36.45 |  3:13.45 |    277245    |   291764
       11  | 64:50.15 |  4:14.30 |    291765    |   310844
       12  | 69:04.45 |  3:51.00 |    310845    |   328169
       13  | 72:55.45 |  3:12.64 |    328170    |   342633
Track  1
     Filename J:\EAC\01 - Barbara Streisand (Mega Mashup-Mix-Medley Vs La Bouche - No Mercy - Chicken Soup).wav
     Pre-gap length  0:00:02.00
     Peak level 99.9 %
     Extraction speed 2.3 X
     Track quality 99.9 %
     Test CRC 2972AD06
     Copy CRC 2972AD06
     Track not present in AccurateRip database
     Copy OK
Track  2
     Filename J:\EAC\02 - Boneym M. (Mega Mashup-Mix-Medley Vs No Mercy - Eruption - La Bouche).wav
     Pre-gap length  0:00:00.74
     Peak level 99.0 %
     Extraction speed 2.3 X
     Track quality 100.0 %
     Test CRC 8E06CBBC
     Copy CRC 8E06CBBC
     Track not present in AccurateRip database
     Copy OK
Track  3
     Filename J:\EAC\03 - Ma Baker (Club Mix).wav
     Pre-gap length  0:00:00.73
     Peak level 98.9 %
     Extraction speed 2.3 X
     Track quality 100.0 %
     Test CRC 7400F468
     Copy CRC 7400F468
     Track not present in AccurateRip database
     Copy OK
Track  4
     Filename J:\EAC\04 - Daddy Cool (Club Mix).wav
     Pre-gap length  0:00:00.72
     Peak level 89.0 %
     Extraction speed 2.3 X
     Track quality 100.0 %
     Test CRC D2901EEC
     Copy CRC D2901EEC
     Track not present in AccurateRip database
     Copy OK
Track  5
     Filename J:\EAC\05 - Sunny (Club Mix).wav
     Pre-gap length  0:00:00.74
     Peak level 97.1 %
     Extraction speed 2.3 X
     Track quality 100.0 %
     Test CRC 98E764FB
     Copy CRC 98E764FB
     Track not present in AccurateRip database
     Copy OK
Track  6
     Filename J:\EAC\06 - Rivers Of Babylon (Club Mix).wav
     Pre-gap length  0:00:00.72
     Peak level 97.1 %
     Extraction speed 2.3 X
     Track quality 99.9 %
     Test CRC 36D7EF05
     Copy CRC 36D7EF05
     Track not present in AccurateRip database
     Copy OK
Track  7
     Filename J:\EAC\07 - Gotta Go Home (Club Mix).wav
     Pre-gap length  0:00:00.72
     Peak level 97.6 %
     Extraction speed 2.2 X
     Track quality 100.0 %
     Test CRC 9283EC80
     Copy CRC 9283EC80
     Track not present in AccurateRip database
     Copy OK
Track  8
     Filename J:\EAC\08 - Rasputin (Club Mix).wav
     Pre-gap length  0:00:00.72
     Peak level 93.8 %
     Extraction speed 2.2 X
     Track quality 100.0 %
     Test CRC 7903F027
     Copy CRC 7903F027
     Track not present in AccurateRip database
     Copy OK
Track  9
     Filename J:\EAC\09 - Happy Song (Club Mix).wav
     Pre-gap length  0:00:00.72
     Peak level 98.8 %
     Extraction speed 2.3 X
     Track quality 100.0 %
     Test CRC 8B822193
     Copy CRC 8B822193
     Track not present in AccurateRip database
     Copy OK
Track 10
     Filename J:\EAC\10 - Barbara Streisand Vs Marilyn Monroe (Club Mix).wav
     Pre-gap length  0:00:00.72
     Peak level 98.8 %
     Extraction speed 2.3 X
     Track quality 99.9 %
     Test CRC 37685E3D
     Copy CRC 37685E3D
     Track not present in AccurateRip database
     Copy OK
Track 11
     Filename J:\EAC\11 - Who The F..K Is Wikileaks.wav
     Pre-gap length  0:00:00.73
     Peak level 98.8 %
     Extraction speed 2.3 X
     Track quality 100.0 %
     Test CRC 98C3BF12
     Copy CRC 98C3BF12
     Track not present in AccurateRip database
     Copy OK
Track 12
     Filename J:\EAC\12 - Be Bop A Lula (House Mix - Radio Edit).wav
     Pre-gap length  0:00:00.73
     Peak level 99.9 %
     Extraction speed 2.2 X
     Track quality 100.0 %
     Test CRC FA8FEDCF
     Copy CRC FA8FEDCF
     Track not present in AccurateRip database
     Copy OK
Track 13
     Filename J:\EAC\13 - Barbara Streisand (Radio Edit By Duck Sauce).wav
     Pre-gap length  0:00:00.72
     Peak level 90.9 %
     Extraction speed 2.2 X
     Track quality 100.0 %
     Test CRC 28947081
     Copy CRC 28947081
     Track not present in AccurateRip database
     Copy OK
None of the tracks are present in the AccurateRip database
No errors occurred
End of status report

Отчёт auCDtect Task manager&#58;

-----------------------
DON'T MODIFY THIS FILE
-----------------------
PERFORMER: auCDtect Task Manager, ver. 1.5.1RC6 build 1.5.1.7
Copyright (c) 2008-2010 y-soft. All rights reserved
http://y-soft.org
ANALYZER: auCDtect: CD records authenticity detector, version 0.8.2
Copyright (c) 2004 Oleg Berngardt. All rights reserved.
Copyright (c) 2004 Alexander Djourik. All rights reserved.
FILE: 13 - Barbra Streisand (Radio Edit by Duck Sauce).flac
  Size: 24607329 Hash: AE61E79E473632A372999233E5202967 Accuracy: -m0
  Conclusion: CDDA 100%
  Signature: F9B633AC22B133E7E251A83C9E7A4D71FFB4039F
FILE: 12 - Be Bop A Lula (House Mix-Radio Edit).flac
  Size: 28599610 Hash: 3DCB2783B180DB43DFD9E906B64CFBD7 Accuracy: -m0
  Conclusion: CDDA 100%
  Signature: B5B19B12E53F793EF8138E5204147EF5CF4982CF
FILE: 11 - Who the F..k Is Wikileaks.flac
  Size: 30931655 Hash: 4BE0CEB8039DBE198A520C5FA329D0E3 Accuracy: -m0
  Conclusion: CDDA 100%
  Signature: BB97D253058FEC0435A56E7F1E32A029257B5A16
FILE: 10 - Barbra Streisand vs. Marilyn Monroe (Club Mix).flac
  Size: 24169673 Hash: 09D49F7AB66759686A000BD121D1DAAE Accuracy: -m0
  Conclusion: CDDA 100%
  Signature: A4E34E713F3767D7701AA751056ADB33AD4EBB02
FILE: 09 - Happy Song (Club Mix).flac
  Size: 30300859 Hash: 30951263DE2172614B3724705D25DD14 Accuracy: -m0
  Conclusion: CDDA 100%
  Signature: 983CD2A210A30F00023F2A60989CE87FDD97A4EE
FILE: 08 - Rasputin (Club Mix).flac
  Size: 34548893 Hash: 84D15D97F96FEE7501548B328EC1A4E9 Accuracy: -m0
  Conclusion: CDDA 100%
  Signature: 476096A6E9B1C527A1B8E61F96C96E718FF37B02
FILE: 07 - Gotta Go Home (Club Mix).flac
  Size: 33820506 Hash: 87FE57A01B5D1305FE02074A9AD9C772 Accuracy: -m0
  Conclusion: CDDA 100%
  Signature: E4F05988DD2BB97742463C5DD980DD1461A693CC
FILE: 06 - Rivers of Babylon (Club Mix).flac
  Size: 31958052 Hash: 3C916EC697D80DFB4C08AF86FCB9B673 Accuracy: -m0
  Conclusion: CDDA 100%
  Signature: 81C2B4286EC818064E9269E986B2A75D6963844F
FILE: 05 - Sunny (Club Mix).flac
  Size: 31268889 Hash: A7F9F1AE009983589B73E279D5E21E42 Accuracy: -m0
  Conclusion: CDDA 100%
  Signature: 7909094D07A9B3EAA989DC6F098E39CB79F28DCE
FILE: 04 - Daddy Cool (Club Mix).flac
  Size: 36663723 Hash: F737F8E1A872A6BB2D2BDFC73F2D03DA Accuracy: -m0
  Conclusion: CDDA 100%
  Signature: B04D99B3A1CEA1F741E230B140340F654E433EE3
FILE: 03 - Ma Baker (Club Mix).flac
  Size: 38697890 Hash: 77C26CDCCADE481F2945E0F0F397DA8B Accuracy: -m0
  Conclusion: CDDA 100%
  Signature: 951FE4BD1244474ECEF43385472BAAD0C0DAEB28
FILE: 02 - Boney M. (Mega Mashup-Mix-Medley vs. No Mercy, Eruption, La Bouche).flac
  Size: 114298458 Hash: 501D94A426AB6E70DDAB088B7F4676FC Accuracy: -m0
  Conclusion: CDDA 100%
  Signature: E60F8359006345586DC183962D7F3BC627FE0893
FILE: 01 - Barbra Streisand (Mega Mashup-Mix-Medley vs. La Bouche, No Mercy, Chicken Soup).flac
  Size: 121422834 Hash: C0400BBDCEC57A274527C741C022D70A Accuracy: -m0
  Conclusion: CDDA 100%
  Signature: D68A3B900655B78BC552D7B16CEA75F72FB80120
-
Яндекс.Метрика
Рейтинг@Mail.ru