[ Сегодня на трекере фрилич! Идет свободное скачивание без начисления Download ]

Army Of Lovers - Les Greatest Hits (1995) [FLAC|Lossless]<Pop>

 

Создавать темы 17-Дек-2014 11:54

-Army Of Lovers - Les Greatest Hits (1995)- Год: 1995
Жанр: Pop
Продолжительность: 01:06:57
Кодек: FLAC
Битрейт: Lossless
Тип рипа: image+.cue
Трек лист:
01. Give My Life (3:58)
02. Venus And Mars (3:31)
03. My Army Of Lovers (3:29)
04. Ride The Bullet (3:28)
05. Supernatural (3:58)
06. Crucified (3:34)
07. Obsession (3:43)
08. Candyman Messiah (3:10)
09. Judgement Day (3:59)
10. Everytime You Lie (3:13)
11. Israelism (3:23)
12. La Plage De Saint Tropez (3:32)
13. I Am (3:56)
14. Lit De Parade (3:28)
15. Sexual Revolution (4:00)
16. Life Is Fantastic (The 1995 Remix) (4:02)
17. Stand Up For Myself (The 1995 Remix) (4:02)
18. Requiem (4:31)

Отчёт ЕАС&#58;

Exact Audio Copy V0.99 prebeta 4 from 23. January 2008
Отчёт EAC об извлечении, выполненном 01. май 2013, 10:19
Army Of Lovers / Les Greatest Hits
Дисковод: SONY CD-RW CRX230E Adapter: 0 ID: 2
Режим чтения : Достоверность
Использование точного потока : Да
Отключение кэша аудио : Да
Использование указателей C2 : Нет
Коррекция смещения при чтении : 6
Способность читать области Lead-in и Lead-out : Нет
Заполнение пропущенных сэмплов тишиной : Да
Удаление блоков с тишиной в начале и конце : Нет
При вычислениях CRC использовались нулевые сэмплы : Да
Интерфейс : Установленный внешний ASPI-интерфейс
Выходной формат : Внутренние WAV-операции
Формат сэмплов : 44.100 Гц; 16 бит; стерео
TOC извлечённого CD
Трек | Старт | Длительность | Начальный сектор | Конечный сектор
---------------------------------------------------------------------
1 | 0:00.00 | 3:57.50 | 0 | 17824
2 | 3:57.50 | 3:30.72 | 17825 | 33646
3 | 7:28.47 | 3:28.65 | 33647 | 49311
4 | 10:57.37 | 3:28.00 | 49312 | 64911
5 | 14:25.37 | 3:57.68 | 64912 | 82754
6 | 18:23.30 | 3:34.15 | 82755 | 98819
7 | 21:57.45 | 3:42.70 | 98820 | 115539
8 | 25:40.40 | 3:10.12 | 115540 | 129801
9 | 28:50.52 | 3:58.45 | 129802 | 147696
10 | 32:49.22 | 3:12.70 | 147697 | 162166
11 | 36:02.17 | 3:23.10 | 162167 | 177401
12 | 39:25.27 | 3:31.58 | 177402 | 193284
13 | 42:57.10 | 3:55.55 | 193285 | 210964
14 | 46:52.65 | 3:28.05 | 210965 | 226569
15 | 50:20.70 | 4:00.25 | 226570 | 244594
16 | 54:21.20 | 4:02.32 | 244595 | 262776
17 | 58:23.52 | 4:02.03 | 262777 | 280929
18 | 62:25.55 | 4:31.25 | 280930 | 301279
Характеристики диапазона извлечения и сообщения об ошибках
Выбранный диапазон
Имя файла L:\Army Of Lovers - Les Greatest Hits.wav
Пиковый уровень 100.0 %
Качество диапазона 99.9 %
CRC копии A4A13496
Копирование... OK
Ошибок не произошло
AccurateRip: сводка
Трек 1 нет в базе данных
Трек 2 нет в базе данных
Трек 3 нет в базе данных
Трек 4 нет в базе данных
Трек 5 нет в базе данных
Трек 6 нет в базе данных
Трек 7 нет в базе данных
Трек 8 нет в базе данных
Трек 9 нет в базе данных
Трек 10 нет в базе данных
Трек 11 нет в базе данных
Трек 12 нет в базе данных
Трек 13 нет в базе данных
Трек 14 нет в базе данных
Трек 15 нет в базе данных
Трек 16 нет в базе данных
Трек 17 нет в базе данных
Трек 18 нет в базе данных
Ни одного трека нет в базе AccurateRip
Конец отчёта

Отчёт auCDtect Task manager&#58;

-----------------------
DON'T MODIFY THIS FILE
-----------------------
PERFORMER: auCDtect Task Manager, ver. 1.5.1RC6 build 1.5.1.7
Copyright (c) 2008-2010 y-soft. All rights reserved
http://y-soft.org
ANALYZER: auCDtect: CD records authenticity detector, version 0.8.2
Copyright (c) 2004 Oleg Berngardt. All rights reserved.
Copyright (c) 2004 Alexander Djourik. All rights reserved.
FILE: Army Of Lovers - Les Greatest Hits.flac
  Size: 492907776 Hash: 68D500417CBD7854CA5011C1C11779DD Accuracy: -m0
  Conclusion: CDDA 100%
  Signature: F3C50262B11CA1ADCEE85910127CBCFC5BD5A2A8
Время раздачи: 24/7
Яндекс.Метрика
Рейтинг@Mail.ru