DJ Bobo - La Vida Es (Maxi-Single) (2012) [FLAC (tracks+cue)|Lossless]<Dance>

 

Создавать темы 17-Дек-2014 11:54

-DJ Bobo - La Vida Es (Maxi-Single) (2012)- Лейбл: Yes Music
Каталог: YES 1080
Год: 2012
Жанр: Dance
Продолжительность: 00:24:10
Кодек: FLAC (tracks+cue)
Битрейт: Lossless
Трек лист:
01. La Vida Es (Radio Version)
02. La Vida Es (Extended Version)
03. La Vida Es (Extended Instrumental Version)
04. Volare
05. Volare (Instrumental Version)
06. Let The Good Times Roll (Live Version)

Отчёт ЕАС&#58;

Exact Audio Copy V1.0 beta 3 from 29. August 2011
EAC extraction logfile from 9. March 2012, 17:49
DJ BoBo / La Vida Es (CD-Maxi-Single)
Used drive  : HL-DT-STDVDRAM GT30N   Adapter: 0  ID: 1
Read mode               : Secure
Utilize accurate stream : Yes
Defeat audio cache      : Yes
Make use of C2 pointers : No
Read offset correction                      : 103
Overread into Lead-In and Lead-Out          : No
Fill up missing offset samples with silence : Yes
Delete leading and trailing silent blocks   : No
Null samples used in CRC calculations       : Yes
Used interface                              : Native Win32 interface for Win NT & 2000
Gap handling                                : Not detected, thus appended to previous track
Used output format              : User Defined Encoder
Selected bitrate                : 1024 kBit/s
Quality                         : High
Add ID3 tag                     : No
Command line compressor         : C:\Program Files (x86)\Exact Audio Copy\Flac\flac.exe
Additional command line options : -8 -V -T "ARTIST=%artist%" -T "TITLE=%title%" -T "ALBUM=%albumtitle%" -T "DATE=%year%" -T "TRACKNUMBER=%tracknr%" -T "GENRE=%genre%" -T "COMMENT=%comment%" -T "BAND=%albuminterpret%" -T "COMPOSER=%composer%" %haslyrics%--tag-from-file=LYRICS="%lyricsfile%"%haslyrics% -T "DISCNUMBER=%cdnumber%" -T "TOTALDISCS=%totalcds%" -T "TOTALTRACKS=%numtracks%" %hascover%--picture="%coverfile%"%hascover% %source% -o %dest%
TOC of the extracted CD
     Track |   Start  |  Length  | Start sector | End sector
    ---------------------------------------------------------
        1  |  0:00.00 |  3:24.06 |         0    |    15305
        2  |  3:24.06 |  4:47.12 |     15306    |    36842
        3  |  8:11.18 |  4:47.13 |     36843    |    58380
        4  | 12:58.31 |  3:00.54 |     58381    |    71934
        5  | 15:59.10 |  3:01.26 |     71935    |    85535
        6  | 19:00.36 |  5:11.10 |     85536    |   108870
Track  1
     Filename D:\Flac\DJ Bobo\Single\01 - DJ BoBo - La Vida Es (Radio Version).wav
     Peak level 99.1 %
     Extraction speed 1.2 X
     Track quality 100.0 %
     Copy CRC F2348A11
     Track not present in AccurateRip database
     Copy OK
Track  2
     Filename D:\Flac\DJ Bobo\Single\02 - DJ BoBo - La Vida Es (Extended Version).wav
     Peak level 97.7 %
     Extraction speed 1.3 X
     Track quality 99.9 %
     Copy CRC E8E862B5
     Track not present in AccurateRip database
     Copy OK
Track  3
     Filename D:\Flac\DJ Bobo\Single\03 - DJ BoBo - La Vida Es (Extended Instrumental Version).wav
     Peak level 97.7 %
     Extraction speed 1.4 X
     Track quality 99.9 %
     Copy CRC 19D52818
     Track not present in AccurateRip database
     Copy OK
Track  4
     Filename D:\Flac\DJ Bobo\Single\04 - DJ BoBo - Volare.wav
     Peak level 97.7 %
     Extraction speed 1.6 X
     Track quality 100.0 %
     Copy CRC 8DEBEA4B
     Track not present in AccurateRip database
     Copy OK
Track  5
     Filename D:\Flac\DJ Bobo\Single\05 - DJ BoBo - Volare (Instrumental Version).wav
     Peak level 97.7 %
     Extraction speed 1.7 X
     Track quality 100.0 %
     Copy CRC D47835D4
     Track not present in AccurateRip database
     Copy OK
Track  6
     Filename D:\Flac\DJ Bobo\Single\06 - DJ BoBo - Let The Good Times Roll (Live Version).wav
     Peak level 97.7 %
     Extraction speed 1.9 X
     Track quality 100.0 %
     Copy CRC AC1FBFBC
     Track not present in AccurateRip database
     Copy OK
None of the tracks are present in the AccurateRip database
No errors occurred
End of status report

Отчёт auCDtect Task manager&#58;

-----------------------
DON'T MODIFY THIS FILE
-----------------------
PERFORMER: auCDtect Task Manager, ver. 1.5.1RC4 build 1.5.1.5
Copyright (c) 2008-2010 y-soft. All rights reserved
http://y-soft.org
ANALYZER: auCDtect: CD records authenticity detector, version 0.8.2
Copyright (c) 2004 Oleg Berngardt. All rights reserved.
Copyright (c) 2004 Alexander Djourik. All rights reserved.
FILE: 06 - DJ BoBo - Let The Good Times Roll (Live Version).flac
  Size: 38608026 Hash: F3332E19B292F578DD2BFEFB183F79D3 Accuracy: -m0
  Conclusion: CDDA 100%
  Signature: 9F8D6BC60F1997B0232C6D5B382048801CC41CED
FILE: 05 - DJ BoBo - Volare (Instrumental Version).flac
  Size: 20152144 Hash: DCAE52B10A65082F7D03526C228F7386 Accuracy: -m0
  Conclusion: CDDA 100%
  Signature: 1F34455D30D5C6B9355B9900F1C2A25B425B5159
FILE: 04 - DJ BoBo - Volare.flac
  Size: 21908172 Hash: C1C4BC2069D6561A743DC9544069A52D Accuracy: -m0
  Conclusion: CDDA 100%
  Signature: 2A5062B73F14C2EF2940D2B23C8957D12D62328C
FILE: 03 - DJ BoBo - La Vida Es (Extended Instrumental Version).flac
  Size: 36471585 Hash: 0E3D8F586B505F3D5A9D66EC70F3A32A Accuracy: -m0
  Conclusion: CDDA 100%
  Signature: 1B01F2D44C9426884A1A419C6879A938ED927160
FILE: 02 - DJ BoBo - La Vida Es (Extended Version).flac
  Size: 37749104 Hash: C8A06D3E6EFCCD81763FFF7A498132BE Accuracy: -m0
  Conclusion: CDDA 100%
  Signature: F947949D7DCB4B8F330041A8B8307814BB1ABE7C
FILE: 01 - DJ BoBo - La Vida Es (Radio Version).flac
  Size: 26807008 Hash: 527BBEAFEECD4F07A1040A07369F782A Accuracy: -m0
  Conclusion: CDDA 99%
  Signature: BFB204DAC40DF487AAC39376D087EDB568E71D84
Время раздачи: С 12:30 до 18:00 и с 20:00 до 08:00 Мск., до 5-ти сидирующих
Яндекс.Метрика
Рейтинг@Mail.ru