VA - Eurovision Song Contest. Malmo 2013 (2013) 2CD [FLAC|Lossless]<Pop>

 

Создавать темы 17-Дек-2014 11:54

-VA - Eurovision Song Contest. Malmo 2013 (2013)- Год: 2013
Жанр: Pop
Продолжительность: 01:58:07
Лейбл: Universal Music / CMC Entertainment
Каталожный №: 373 575 2
Сканы: Комплект
Кодек: FLAC (tracks+.cue)
Битрейт: Lossless-CD1
Треклист:
01. Adrian Lulgjuraj & Bledar Sejko - Identitet (Albania) [3:01]
02. Dorians - Lonely planet (Armenia) [3:05]
03. Natalia Kelly - Shine (Austria) [3:01]
04. Farid Mammadov - Hold me (Azerbaijan) [2:56]
05. Roberto Bellarosa - Love kills (Belgium) [3:02]
06. Eliza Todorowa; Stojan Jankulow - Samo shampioni (Bulgaria) [3:00]
07. Aljona Lanskaja - Solayoh (Belarus) [2:59]
08. Heilsarmee - You and me (Switzerland) [2:56]
09. Despina Olympiou - An me thimasai (Cyprus) [3:00]
10. Cascada - Glorious (Germany) [3:00]
11. Emmelie de Forest - Only teardrops (Denmark) [3:03]
12. Birgit Oigemeel - Et uus saaks alguse (Estonia) [3:01]
13. El Sueno de Morfeo - Contigo hasta el final (With you until the end) (Spain) [3:07]
14. Krista Siegfrids - Marry me (Finland) [3:01] 15. Amandine Bourgeois - L'enfer et moi (France) [2:59]
16. Bonnie Tyler - Believe in me (United Kingdom) [3:01]
17. Sopo Gelowani; Nodiko Tatischwili - Waterfall (Georgia) [3:09]
18. Koza Mostra; Agathonas Iakovidis - Alcohol is free (Greece) [2:56]
19. Klapa s mora - Mizerja (Croatia) [3:01]
20. ByeAlex - Kedvesem [Zoohacker remix] (Hungary) [3:07]
Продолжительность: 01:00:25

Содержимое индексной карты (.cue&#41;&#58;

REM GENRE Pop
REM DATE 2013
REM DISCID 120E2814
REM COMMENT "ExactAudioCopy v1.0b3"
PERFORMER "Various Artists"
TITLE "Eurovision song contest Malmo 2013 Disc 1"
FILE "01 - Adrian Lulgjuraj; Bledar Sejko - Identitet [Albania].wav" WAVE
  TRACK 01 AUDIO
    TITLE "Identitet [Albania]"
    PERFORMER "Adrian Lulgjuraj; Bledar Sejko"
    INDEX 01 00:00:00
FILE "02 - Dorians - Lonely planet [Armenia].wav" WAVE
  TRACK 02 AUDIO
    TITLE "Lonely planet [Armenia]"
    PERFORMER "Dorians"
    INDEX 01 00:00:00
FILE "03 - Natalia Kelly - Shine [Austria].wav" WAVE
  TRACK 03 AUDIO
    TITLE "Shine [Austria]"
    PERFORMER "Natalia Kelly"
    INDEX 01 00:00:00
FILE "04 - Farid Mammadov - Hold me [Azerbaijan].wav" WAVE
  TRACK 04 AUDIO
    TITLE "Hold me [Azerbaijan]"
    PERFORMER "Farid Mammadov"
    INDEX 01 00:00:00
  TRACK 05 AUDIO
    TITLE "Love kills [Belgium]"
    PERFORMER "Roberto Bellarosa"
    INDEX 00 02:54:44
FILE "05 - Roberto Bellarosa - Love kills [Belgium].wav" WAVE
    INDEX 01 00:00:00
  TRACK 06 AUDIO
    TITLE "Samo shampioni [Bulgaria]"
    PERFORMER "Eliza Todorowa; Stojan Jankulow"
    INDEX 00 03:00:68
FILE "06 - Eliza Todorowa; Stojan Jankulow - Samo shampioni [Bulgaria].wav" WAVE
    INDEX 01 00:00:00
FILE "07 - Aljona Lanskaja - Solayoh [Belarus].wav" WAVE
  TRACK 07 AUDIO
    TITLE "Solayoh [Belarus]"
    PERFORMER "Aljona Lanskaja"
    INDEX 01 00:00:00
FILE "08 - Heilsarmee - You and me [Switzerland].wav" WAVE
  TRACK 08 AUDIO
    TITLE "You and me [Switzerland]"
    PERFORMER "Heilsarmee"
    INDEX 01 00:00:00
  TRACK 09 AUDIO
    TITLE "An me thimasai [Cyprus]"
    PERFORMER "Despina Olympiou"
    INDEX 00 02:54:68
FILE "09 - Despina Olympiou - An me thimasai [Cyprus].wav" WAVE
    INDEX 01 00:00:00
FILE "10 - Cascada - Glorious [Germany].wav" WAVE
  TRACK 10 AUDIO
    TITLE "Glorious [Germany]"
    PERFORMER "Cascada"
    INDEX 01 00:00:00
  TRACK 11 AUDIO
    TITLE "Only teardrops [Denmark]"
    PERFORMER "Emmelie de Forest"
    INDEX 00 02:57:68
FILE "11 - Emmelie de Forest - Only teardrops [Denmark].wav" WAVE
    INDEX 01 00:00:00
FILE "12 - Birgit Oigemeel - Et uus saaks alguse [Estonia].wav" WAVE
  TRACK 12 AUDIO
    TITLE "Et uus saaks alguse [Estonia]"
    PERFORMER "Birgit Oigemeel"
    INDEX 01 00:00:00
FILE "13 - El Sueno de Morfeo - Contigo hasta el final (With you until the end) [Spain].wav" WAVE
  TRACK 13 AUDIO
    TITLE "Contigo hasta el final (With you until the end) [Spain]"
    PERFORMER "El Sueno de Morfeo"
    INDEX 01 00:00:00
  TRACK 14 AUDIO
    TITLE "Marry me [Finland]"
    PERFORMER "Krista Siegfrids"
    INDEX 00 03:05:46
FILE "14 - Krista Siegfrids - Marry me [Finland].wav" WAVE
    INDEX 01 00:00:00
  TRACK 15 AUDIO
    TITLE "L'enfer et moi  [France]"
    PERFORMER "Amandine Bourgeois"
    INDEX 00 02:59:74
FILE "15 - Amandine Bourgeois - L'enfer et moi  [France].wav" WAVE
    INDEX 01 00:00:00
FILE "16 - Bonnie Tyler - Believe in me [United Kingdom].wav" WAVE
  TRACK 16 AUDIO
    TITLE "Believe in me [United Kingdom]"
    PERFORMER "Bonnie Tyler"
    INDEX 01 00:00:00
FILE "17 - Sopo Gelowani; Nodiko Tatischwili - Waterfall [Georgia].wav" WAVE
  TRACK 17 AUDIO
    TITLE "Waterfall [Georgia]"
    PERFORMER "Sopo Gelowani; Nodiko Tatischwili"
    INDEX 01 00:00:00
  TRACK 18 AUDIO
    TITLE "Alcohol is free [Greece]"
    PERFORMER "Koza Mostra; Agathonas Iakovidis"
    INDEX 00 03:07:50
FILE "18 - Koza Mostra; Agathonas Iakovidis - Alcohol is free [Greece].wav" WAVE
    INDEX 01 00:00:00
  TRACK 19 AUDIO
    TITLE "Mizerja [Croatia]"
    PERFORMER "Klapa s mora"
    INDEX 00 02:54:59
FILE "19 - Klapa s mora - Mizerja [Croatia].wav" WAVE
    INDEX 01 00:00:00
  TRACK 20 AUDIO
    TITLE "Kedvesem [Zoohacker remix] [Hungary]"
    PERFORMER "ByeAlex"
    INDEX 00 03:00:01
FILE "20 - ByeAlex - Kedvesem [Zoohacker remix] [Hungary].wav" WAVE
    INDEX 01 00:00:00

Отчёт ЕАС&#58;

Exact Audio Copy V1.0 beta 3 from 29. August 2011
EAC extraction logfile from 13. May 2013, 11:04
Various Artists / Eurovision song contest Malmo 2013 Disc 1
Used drive  : TSSTcorpCDDVDW TS-U633J   Adapter: 0  ID: 1
Read mode               : Secure
Utilize accurate stream : Yes
Defeat audio cache      : Yes
Make use of C2 pointers : No
Read offset correction                      : 6
Overread into Lead-In and Lead-Out          : No
Fill up missing offset samples with silence : Yes
Delete leading and trailing silent blocks   : No
Null samples used in CRC calculations       : Yes
Used interface                              : Native Win32 interface for Win NT & 2000
Gap handling                                : Appended to previous track
Used output format              : User Defined Encoder
Selected bitrate                : 768 kBit/s
Quality                         : High
Add ID3 tag                     : No
Command line compressor         : C:\Program Files\Exact Audio Copy\FLAC\FLAC.EXE
Additional command line options : -6 -V -T "ARTIST=%artist%" -T "TITLE=%title%" -T "ALBUM=%albumtitle%" -T "DATE=%year%" -T "TRACKNUMBER=%tracknr%" -T "GENRE=%genre%" -T "COMMENT=%comment%" -T "ALBUMARTIST=%albuminterpret%" -T "COMPOSER=%composer%" -T "DISCNUMBER=%cdnumber%" -T "TOTALDISCS=%totalcds%" -T "TOTALTRACKS=%numtracks%" %source% -o %dest%
TOC of the extracted CD
     Track |   Start  |  Length  | Start sector | End sector
    ---------------------------------------------------------
        1  |  0:00.00 |  3:01.13 |         0    |    13587
        2  |  3:01.13 |  3:04.49 |     13588    |    27436
        3  |  6:05.62 |  3:00.43 |     27437    |    40979
        4  |  9:06.30 |  2:55.49 |     40980    |    54153
        5  | 12:02.04 |  3:02.12 |     54154    |    67815
        6  | 15:04.16 |  2:59.58 |     67816    |    81298
        7  | 18:03.74 |  2:59.04 |     81299    |    94727
        8  | 21:03.03 |  2:56.01 |     94728    |   107928
        9  | 23:59.04 |  2:59.73 |    107929    |   121426
       10  | 26:59.02 |  2:59.65 |    121427    |   134916
       11  | 29:58.67 |  3:02.67 |    134917    |   148633
       12  | 33:01.59 |  3:01.13 |    148634    |   162221
       13  | 36:02.72 |  3:06.63 |    162222    |   176234
       14  | 39:09.60 |  3:01.28 |    176235    |   189837
       15  | 42:11.13 |  2:58.52 |    189838    |   203239
       16  | 45:09.65 |  3:01.37 |    203240    |   216851
       17  | 48:11.27 |  3:08.61 |    216852    |   231012
       18  | 51:20.13 |  2:56.23 |    231013    |   244235
       19  | 54:16.36 |  3:01.31 |    244236    |   257841
       20  | 57:17.67 |  3:07.00 |    257842    |   271866
Track  1
     Filename C:\Music\01 - Adrian Lulgjuraj; Bledar Sejko - Identitet [Albania].wav
     Pre-gap length  0:00:02.00
     Peak level 98.9 %
     Extraction speed 2.5 X
     Track quality 100.0 %
     Test CRC 50A09432
     Copy CRC 50A09432
     Track not present in AccurateRip database
     Copy OK
Track  2
     Filename C:\Music\02 - Dorians - Lonely planet [Armenia].wav
     Peak level 98.3 %
     Extraction speed 2.8 X
     Track quality 100.0 %
     Test CRC CE53D3CF
     Copy CRC CE53D3CF
     Track not present in AccurateRip database
     Copy OK
Track  3
     Filename C:\Music\03 - Natalia Kelly - Shine [Austria].wav
     Peak level 98.9 %
     Extraction speed 2.3 X
     Track quality 99.9 %
     Test CRC BC781371
     Copy CRC BC781371
     Track not present in AccurateRip database
     Copy OK
Track  4
     Filename C:\Music\04 - Farid Mammadov - Hold me [Azerbaijan].wav
     Peak level 100.0 %
     Extraction speed 3.0 X
     Track quality 100.0 %
     Test CRC 1FF98230
     Copy CRC 1FF98230
     Track not present in AccurateRip database
     Copy OK
Track  5
     Filename C:\Music\05 - Roberto Bellarosa - Love kills [Belgium].wav
     Pre-gap length  0:00:01.05
     Peak level 98.9 %
     Extraction speed 3.2 X
     Track quality 100.0 %
     Test CRC 743C1B65
     Copy CRC 743C1B65
     Track not present in AccurateRip database
     Copy OK
Track  6
     Filename C:\Music\06 - Eliza Todorowa; Stojan Jankulow - Samo shampioni [Bulgaria].wav
     Pre-gap length  0:00:01.19
     Peak level 100.0 %
     Extraction speed 3.3 X
     Track quality 100.0 %
     Test CRC 668C78AD
     Copy CRC 668C78AD
     Track not present in AccurateRip database
     Copy OK
Track  7
     Filename C:\Music\07 - Aljona Lanskaja - Solayoh [Belarus].wav
     Peak level 100.0 %
     Extraction speed 3.5 X
     Track quality 100.0 %
     Test CRC 78FE0F48
     Copy CRC 78FE0F48
     Track not present in AccurateRip database
     Copy OK
Track  8
     Filename C:\Music\08 - Heilsarmee - You and me [Switzerland].wav
     Peak level 98.2 %
     Extraction speed 3.6 X
     Track quality 100.0 %
     Test CRC DC799226
     Copy CRC DC799226
     Track not present in AccurateRip database
     Copy OK
Track  9
     Filename C:\Music\09 - Despina Olympiou - An me thimasai [Cyprus].wav
     Pre-gap length  0:00:01.08
     Peak level 98.9 %
     Extraction speed 3.7 X
     Track quality 100.0 %
     Test CRC A7B7D312
     Copy CRC A7B7D312
     Track not present in AccurateRip database
     Copy OK
Track 10
     Filename C:\Music\10 - Cascada - Glorious [Germany].wav
     Peak level 100.0 %
     Extraction speed 3.8 X
     Track quality 100.0 %
     Test CRC BBCE9F81
     Copy CRC BBCE9F81
     Track not present in AccurateRip database
     Copy OK
Track 11
     Filename C:\Music\11 - Emmelie de Forest - Only teardrops [Denmark].wav
     Pre-gap length  0:00:01.72
     Peak level 98.8 %
     Extraction speed 3.2 X
     Track quality 99.9 %
     Test CRC 4ADAF77A
     Copy CRC 4ADAF77A
     Track not present in AccurateRip database
     Copy OK
Track 12
     Filename C:\Music\12 - Birgit Oigemeel - Et uus saaks alguse [Estonia].wav
     Peak level 98.9 %
     Extraction speed 4.1 X
     Track quality 100.0 %
     Test CRC E92F9BD2
     Copy CRC E92F9BD2
     Track not present in AccurateRip database
     Copy OK
Track 13
     Filename C:\Music\13 - El Sueno de Morfeo - Contigo hasta el final (With you until the end) [Spain].wav
     Peak level 98.9 %
     Extraction speed 4.2 X
     Track quality 100.0 %
     Test CRC A40090DE
     Copy CRC A40090DE
     Track not present in AccurateRip database
     Copy OK
Track 14
     Filename C:\Music\14 - Krista Siegfrids - Marry me [Finland].wav
     Pre-gap length  0:00:01.17
     Peak level 99.2 %
     Extraction speed 4.3 X
     Track quality 100.0 %
     Test CRC 9779A752
     Copy CRC 9779A752
     Track not present in AccurateRip database
     Copy OK
Track 15
     Filename C:\Music\15 - Amandine Bourgeois - L'enfer et moi  [France].wav
     Pre-gap length  0:00:01.29
     Peak level 100.0 %
     Extraction speed 4.4 X
     Track quality 100.0 %
     Test CRC 6C41CB5F
     Copy CRC 6C41CB5F
     Track not present in AccurateRip database
     Copy OK
Track 16
     Filename C:\Music\16 - Bonnie Tyler - Believe in me [United Kingdom].wav
     Peak level 99.2 %
     Extraction speed 4.5 X
     Track quality 100.0 %
     Test CRC 057C29A5
     Copy CRC 057C29A5
     Track not present in AccurateRip database
     Copy OK
Track 17
     Filename C:\Music\17 - Sopo Gelowani; Nodiko Tatischwili - Waterfall [Georgia].wav
     Peak level 98.9 %
     Extraction speed 4.7 X
     Track quality 100.0 %
     Test CRC 53EE1C09
     Copy CRC 53EE1C09
     Track not present in AccurateRip database
     Copy OK
Track 18
     Filename C:\Music\18 - Koza Mostra; Agathonas Iakovidis - Alcohol is free [Greece].wav
     Pre-gap length  0:00:01.11
     Peak level 100.0 %
     Extraction speed 3.7 X
     Track quality 99.9 %
     Test CRC 522940C8
     Copy CRC 522940C8
     Track not present in AccurateRip database
     Copy OK
Track 19
     Filename C:\Music\19 - Klapa s mora - Mizerja [Croatia].wav
     Pre-gap length  0:00:01.39
     Peak level 98.9 %
     Extraction speed 4.9 X
     Track quality 100.0 %
     Test CRC CFA0D685
     Copy CRC CFA0D685
     Track not present in AccurateRip database
     Copy OK
Track 20
     Filename C:\Music\20 - ByeAlex - Kedvesem [Zoohacker remix] [Hungary].wav
     Pre-gap length  0:00:01.30
     Peak level 100.0 %
     Extraction speed 4.9 X
     Track quality 100.0 %
     Test CRC 4B6E5878
     Copy CRC 4B6E5878
     Track not present in AccurateRip database
     Copy OK
None of the tracks are present in the AccurateRip database
No errors occurred
End of status report
==== Log checksum 54F9CFAE8BD91844C90B50E63B906526616F3310A45B8C286BC71DCE2C85C3DE ====

Отчёт auCDtect Task Manager&#58;

-----------------------
DON'T MODIFY THIS FILE
-----------------------
PERFORMER: auCDtect Task Manager, ver. 1.5.1RC3 build 1.5.1.4
Copyright (c) 2008-2010 y-soft. All rights reserved
http://y-soft.org
ANALYZER: auCDtect: CD records authenticity detector, version 0.8.2
Copyright (c) 2004 Oleg Berngardt. All rights reserved.
Copyright (c) 2004 Alexander Djourik. All rights reserved.
FILE: 20 - ByeAlex - Kedvesem [Zoohacker remix] [Hungary].flac
  Size: 22378625 Hash: D326F65D8095F313D40BAD9C0DEC7FCB Accuracy: -m0
  Conclusion: CDDA 100%
  Signature: A560E667CFB51AB63480C9B1B604142A1413CC7F
FILE: 19 - Klapa s mora - Mizerja [Croatia].flac
  Size: 21427263 Hash: 6452BA1077E8DB4A8CD917185F02A7B4 Accuracy: -m0
  Conclusion: CDDA 99%
  Signature: 63CED50BD143FC09AE16F72AFA172914229F0DAA
FILE: 18 - Koza Mostra; Agathonas Iakovidis - Alcohol is free [Greece].flac
  Size: 23865824 Hash: 0647133158944257C43BA886C8166210 Accuracy: -m0
  Conclusion: CDDA 100%
  Signature: 89E37E1D175084DAA0AE531359723E621F044D4F
FILE: 17 - Sopo Gelowani; Nodiko Tatischwili - Waterfall [Georgia].flac
  Size: 22864586 Hash: AE4DADFD461593290A69D06CF981C349 Accuracy: -m0
  Conclusion: CDDA 100%
  Signature: 09122BC8D8497F4D7A73086880FA2EC2B4EE00AD
FILE: 16 - Bonnie Tyler - Believe in me [United Kingdom].flac
  Size: 21981221 Hash: A8A99A6AA6DBF4B94D540A246CA68F07 Accuracy: -m0
  Conclusion: CDDA 100%
  Signature: 4E8C3F055B5754D81E715D4FB967FD2BD7B82A31
FILE: 15 - Amandine Bourgeois - L'enfer et moi  [France].flac
  Size: 19714849 Hash: 483F59AE3B1D30A0C7C8FD46B4340F8E Accuracy: -m0
  Conclusion: CDDA 100%
  Signature: 92A80F67E4195B3CC8D7978CBFE3001FC78D4294
FILE: 14 - Krista Siegfrids - Marry me [Finland].flac
  Size: 23053663 Hash: FA161609898381B990B81B5FD6B5FFAA Accuracy: -m0
  Conclusion: CDDA 100%
  Signature: 035BD58B5A4DFBC9579A681F26BFE3C2CC326556
FILE: 13 - El Sueno de Morfeo - Contigo hasta el final (With you until the end) [Spain].flac
  Size: 23284470 Hash: AC1974B99C4152434DE50BA0FE84704E Accuracy: -m0
  Conclusion: CDDA 100%
  Signature: E3DFBB2FBD4915F0EB0EDF1FE13B2737398DE596
FILE: 12 - Birgit Oigemeel - Et uus saaks alguse [Estonia].flac
  Size: 22202685 Hash: 30762426482D444C1F93AB39BE14A3BD Accuracy: -m0
  Conclusion: CDDA 100%
  Signature: 6E22ECF2105F37FA2C5C7C4CA683A94685F7300D
FILE: 11 - Emmelie de Forest - Only teardrops [Denmark].flac
  Size: 22949923 Hash: 9908D9AE7FB47D1CBF4711BF6134BE27 Accuracy: -m0
  Conclusion: CDDA 99%
  Signature: E2E35386DC63CBFECE76AF85FF3109A4000A75AA
FILE: 10 - Cascada - Glorious [Germany].flac
  Size: 24473076 Hash: 5A0F24BED42DC03CD2C311630CDF09D2 Accuracy: -m0
  Conclusion: CDDA 99%
  Signature: B63AE4D60207C818CF5F6220C8B6419A81E48803
FILE: 09 - Despina Olympiou - An me thimasai [Cyprus].flac
  Size: 21018433 Hash: 98F0BD25F330EE2F20A94EE369B447FF Accuracy: -m0
  Conclusion: CDDA 99%
  Signature: C990B872A8F299686C8FB95F4AB248E26271B384
FILE: 08 - Heilsarmee - You and me [Switzerland].flac
  Size: 24031486 Hash: 2BB96524EAE8F8A84A255B8FC7753A51 Accuracy: -m0
  Conclusion: CDDA 100%
  Signature: A7436AE4A817550B82C8345F3E93E68952A54B1A
FILE: 07 - Aljona Lanskaja - Solayoh [Belarus].flac
  Size: 24133903 Hash: ACC721FBD4DF425E5A7246E1CE9E35A5 Accuracy: -m0
  Conclusion: CDDA 100%
  Signature: F7226B3F53D9FE41F6DE8BB24B3BDC1430FFA338
FILE: 06 - Eliza Todorowa; Stojan Jankulow - Samo shampioni [Bulgaria].flac
  Size: 24296737 Hash: 45716A77BF4DB30D918ED1057AB117AB Accuracy: -m0
  Conclusion: CDDA 100%
  Signature: 6107D025847B3168D88CFE78DD6F1FA0E2A87CA3
FILE: 05 - Roberto Bellarosa - Love kills [Belgium].flac
  Size: 23319929 Hash: 206EB89264F7543978E21F5FE865F6D2 Accuracy: -m0
  Conclusion: CDDA 100%
  Signature: 644E666B56FE7F2D6E60C160D6986AE7D3B5DFB2
FILE: 04 - Farid Mammadov - Hold me [Azerbaijan].flac
  Size: 24289832 Hash: EAC1DDC589D46454F3BB6C49DE316F89 Accuracy: -m0
  Conclusion: CDDA 100%
  Signature: BE054143FCB3F7BA4667A4AFF1656B99A43ACE5C
FILE: 03 - Natalia Kelly - Shine [Austria].flac
  Size: 21953376 Hash: 7D59D8A4F39E73E8AAC588924B3CC01B Accuracy: -m0
  Conclusion: CDDA 99%
  Signature: 342F1415282DE9441AEAABC9114F3CECA1083CA0
FILE: 02 - Dorians - Lonely planet [Armenia].flac
  Size: 22686659 Hash: 0D114D4BF05B4AFD668AF7BC5419684C Accuracy: -m0
  Conclusion: CDDA 100%
  Signature: 1552FF1BC5AC29433F4C3111C2B54E3003F0FCAF
FILE: 01 - Adrian Lulgjuraj; Bledar Sejko - Identitet [Albania].flac
  Size: 23728514 Hash: A8D14025AE5B10986AC7DC30483AA1E3 Accuracy: -m0
  Conclusion: CDDA 100%
  Signature: 9F06A59EB915C3371696E29C914AEAE5CC3225A2
-CD2
Трек лист:
01. Ryan Dolan - Only love survives (Ireland) [3:01]
02. Moran Mazor - Rak bishvilo (Israel) [3:02]
03. Eybor Ingi Gunnlaugsson - Eg a lif (Iceland) [3:02]
04. Marco Mengoni - L'essenziale (Italy) [3:13]
05. Andrius Pojavis - Something (Lithuania) [3:08]
06. PeR - Here we go (Latvia) [2:56]
07. Aliona Moon - O mie (Moldova) [3:04]
08. Who See; Nina Zizic - Igranka (Montenegro) [2:56]
09. Esma Redzepova; Vlatko Lozanoski - Pred da se razdeni (F.Y.R. Macedonia) [3:06]
10. Gianluca Bezzina - Tomorrow (Malta) [3:01]
11. Anouk - Birds (The Netherlands) [3:03]
12. Margaret Berger - I feed you my love (Norway) [3:01]
13. Cezar - It's my life (Romania) [3:02]
14. Moje 3 - Ljubav je svuda (Serbia) [3:01]
15. Dina Garipowa - What if? (Russia) [3:06]
16. Robin Stjernberg - You (Sweden) [3:03]
17. Hannah Mancini - Straight into love (Slovenia) [3:02]
18. Valentina Monetta - Crisalide (Vola) (San Marino) [2:57]
19. Zlata Ohnewitsch - Gravity (Ukraine) [3:00]
Продолжительность: 00:57:42

Содержимое индексной карты (.cue&#41;&#58;

REM GENRE Pop
REM DATE 2013
REM DISCID 0B0D8613
REM COMMENT "ExactAudioCopy v1.0b3"
PERFORMER "Various Artists"
TITLE "Eurovision song contest Malmo 2013 Disc 2"
FILE "01 - Ryan Dolan - Only love survives [Ireland].wav" WAVE
  TRACK 01 AUDIO
    TITLE "Only love survives [Ireland]"
    PERFORMER "Ryan Dolan"
    INDEX 01 00:00:00
  TRACK 02 AUDIO
    TITLE "Rak bishvilo [Israel]"
    PERFORMER "Moran Mazor"
    INDEX 00 03:00:01
FILE "02 - Moran Mazor - Rak bishvilo [Israel].wav" WAVE
    INDEX 01 00:00:00
  TRACK 03 AUDIO
    TITLE "Eg a lif [Iceland]"
    PERFORMER "Eybor Ingi Gunnlaugsson"
    INDEX 00 02:59:70
FILE "03 - Eybor Ingi Gunnlaugsson - Eg a lif [Iceland].wav" WAVE
    INDEX 01 00:00:00
FILE "04 - Marco Mengoni - L'essenziale [Italy].wav" WAVE
  TRACK 04 AUDIO
    TITLE "L'essenziale [Italy]"
    PERFORMER "Marco Mengoni"
    INDEX 01 00:00:00
  TRACK 05 AUDIO
    TITLE "Something [Lithuania]"
    PERFORMER "Andrius Pojavis"
    INDEX 00 03:11:47
FILE "05 - Andrius Pojavis - Something [Lithuania].wav" WAVE
    INDEX 01 00:00:00
  TRACK 06 AUDIO
    TITLE "Here we go [Latvia]"
    PERFORMER "PeR"
    INDEX 00 03:06:53
FILE "06 - PeR - Here we go [Latvia].wav" WAVE
    INDEX 01 00:00:00
FILE "07 - Aliona Moon - O mie [Moldova].wav" WAVE
  TRACK 07 AUDIO
    TITLE "O mie [Moldova]"
    PERFORMER "Aliona Moon"
    INDEX 01 00:00:00
FILE "08 - Who See; Nina Zizic - Igranka [Montenegro].wav" WAVE
  TRACK 08 AUDIO
    TITLE "Igranka [Montenegro]"
    PERFORMER "Who See; Nina Zizic"
    INDEX 01 00:00:00
  TRACK 09 AUDIO
    TITLE "Pred da se razdeni [F.Y.R. Macedonia]"
    PERFORMER "Esma Redzepova; Vlatko Lozanoski"
    INDEX 00 02:54:09
FILE "09 - Esma Redzepova; Vlatko Lozanoski - Pred da se razdeni [F.Y.R. Macedonia].wav" WAVE
    INDEX 01 00:00:00
  TRACK 10 AUDIO
    TITLE "Tomorrow [Malta]"
    PERFORMER "Gianluca Bezzina"
    INDEX 00 03:05:13
FILE "10 - Gianluca Bezzina - Tomorrow [Malta].wav" WAVE
    INDEX 01 00:00:00
  TRACK 11 AUDIO
    TITLE "Birds [The Netherlands]"
    PERFORMER "Anouk"
    INDEX 00 03:00:12
FILE "11 - Anouk - Birds [The Netherlands].wav" WAVE
    INDEX 01 00:00:00
  TRACK 12 AUDIO
    TITLE "I feed you my love [Norway]"
    PERFORMER "Margaret Berger"
    INDEX 00 03:01:08
FILE "12 - Margaret Berger - I feed you my love [Norway].wav" WAVE
    INDEX 01 00:00:00
FILE "13 - Cezar - It's my life [Romania].wav" WAVE
  TRACK 13 AUDIO
    TITLE "It's my life [Romania]"
    PERFORMER "Cezar"
    INDEX 01 00:00:00
  TRACK 14 AUDIO
    TITLE "Ljubav je svuda [Serbia]"
    PERFORMER "Moje 3"
    INDEX 00 03:00:01
FILE "14 - Moje 3 - Ljubav je svuda [Serbia].wav" WAVE
    INDEX 01 00:00:00
FILE "15 - Dina Fagimowna Garipowa - What if [Russia].wav" WAVE
  TRACK 15 AUDIO
    TITLE "What if? [Russia]"
    PERFORMER "Dina Fagimowna Garipowa"
    INDEX 01 00:00:00
  TRACK 16 AUDIO
    TITLE "You [Sweden]"
    PERFORMER "Robin Stjernberg"
    INDEX 00 03:04:73
FILE "16 - Robin Stjernberg - You [Sweden].wav" WAVE
    INDEX 01 00:00:00
FILE "17 - Hannah Mancini - Straight into love [Slovenia].wav" WAVE
  TRACK 17 AUDIO
    TITLE "Straight into love [Slovenia]"
    PERFORMER "Hannah Mancini"
    INDEX 01 00:00:00
FILE "18 - Valentina Monetta - Crisalide (Vola) [San Marino].wav" WAVE
  TRACK 18 AUDIO
    TITLE "Crisalide (Vola) [San Marino]"
    PERFORMER "Valentina Monetta"
    INDEX 01 00:00:00
FILE "19 - Zlata Ohnewitsch - Gravity [Ukraine].wav" WAVE
  TRACK 19 AUDIO
    TITLE "Gravity [Ukraine]"
    PERFORMER "Zlata Ohnewitsch"
    INDEX 01 00:00:00

Отчёт ЕАС&#58;

Exact Audio Copy V1.0 beta 3 from 29. August 2011
EAC extraction logfile from 13. May 2013, 12:48
Various Artists / Eurovision song contest Malmo 2013 Disc 2
Used drive  : TSSTcorpCDDVDW TS-U633J   Adapter: 0  ID: 1
Read mode               : Secure
Utilize accurate stream : Yes
Defeat audio cache      : Yes
Make use of C2 pointers : No
Read offset correction                      : 6
Overread into Lead-In and Lead-Out          : No
Fill up missing offset samples with silence : Yes
Delete leading and trailing silent blocks   : No
Null samples used in CRC calculations       : Yes
Used interface                              : Native Win32 interface for Win NT & 2000
Gap handling                                : Appended to previous track
Used output format              : User Defined Encoder
Selected bitrate                : 768 kBit/s
Quality                         : High
Add ID3 tag                     : No
Command line compressor         : C:\Program Files\Exact Audio Copy\FLAC\FLAC.EXE
Additional command line options : -6 -V -T "ARTIST=%artist%" -T "TITLE=%title%" -T "ALBUM=%albumtitle%" -T "DATE=%year%" -T "TRACKNUMBER=%tracknr%" -T "GENRE=%genre%" -T "COMMENT=%comment%" -T "ALBUMARTIST=%albuminterpret%" -T "COMPOSER=%composer%" -T "DISCNUMBER=%cdnumber%" -T "TOTALDISCS=%totalcds%" -T "TOTALTRACKS=%numtracks%" %source% -o %dest%
TOC of the extracted CD
     Track |   Start  |  Length  | Start sector | End sector
    ---------------------------------------------------------
        1  |  0:00.00 |  3:01.20 |         0    |    13594
        2  |  3:01.20 |  3:01.54 |     13595    |    27223
        3  |  6:02.74 |  3:01.53 |     27224    |    40851
        4  |  9:04.52 |  3:12.66 |     40852    |    55317
        5  | 12:17.43 |  3:07.70 |     55318    |    69412
        6  | 15:25.38 |  2:55.40 |     69413    |    82577
        7  | 18:21.03 |  3:03.53 |     82578    |    96355
        8  | 21:24.56 |  2:55.52 |     96356    |   109532
        9  | 24:20.33 |  3:06.28 |    109533    |   123510
       10  | 27:26.61 |  3:01.37 |    123511    |   137122
       11  | 30:28.23 |  3:02.50 |    137123    |   150822
       12  | 33:30.73 |  3:01.29 |    150823    |   164426
       13  | 36:32.27 |  3:01.74 |    164427    |   178075
       14  | 39:34.26 |  3:00.74 |    178076    |   191649
       15  | 42:35.25 |  3:05.73 |    191650    |   205597
       16  | 45:41.23 |  3:02.61 |    205598    |   219308
       17  | 48:44.09 |  3:01.43 |    219309    |   232926
       18  | 51:45.52 |  2:56.70 |    232927    |   246196
       19  | 54:42.47 |  2:59.58 |    246197    |   259679
Track  1
     Filename C:\Music\01 - Ryan Dolan - Only love survives [Ireland].wav
     Pre-gap length  0:00:02.00
     Peak level 99.7 %
     Extraction speed 0.8 X
     Track quality 99.9 %
     Test CRC 4783B611
     Copy CRC 4783B611
     Track not present in AccurateRip database
     Copy OK
Track  2
     Filename C:\Music\02 - Moran Mazor - Rak bishvilo [Israel].wav
     Pre-gap length  0:00:01.19
     Peak level 97.8 %
     Extraction speed 1.0 X
     Track quality 100.0 %
     Test CRC C4212154
     Copy CRC C4212154
     Track not present in AccurateRip database
     Copy OK
Track  3
     Filename C:\Music\03 - Eybor Ingi Gunnlaugsson - Eg a lif [Iceland].wav
     Pre-gap length  0:00:01.59
     Peak level 96.6 %
     Extraction speed 1.1 X
     Track quality 100.0 %
     Test CRC AD7EEEDB
     Copy CRC AD7EEEDB
     Track not present in AccurateRip database
     Copy OK
Track  4
     Filename C:\Music\04 - Marco Mengoni - L'essenziale [Italy].wav
     Peak level 100.0 %
     Extraction speed 1.0 X
     Track quality 99.9 %
     Test CRC AD93397F
     Copy CRC AD93397F
     Track not present in AccurateRip database
     Copy OK
Track  5
     Filename C:\Music\05 - Andrius Pojavis - Something [Lithuania].wav
     Pre-gap length  0:00:01.19
     Peak level 99.9 %
     Extraction speed 1.2 X
     Track quality 100.0 %
     Test CRC F76E545C
     Copy CRC F76E545C
     Track not present in AccurateRip database
     Copy OK
Track  6
     Filename C:\Music\06 - PeR - Here we go [Latvia].wav
     Pre-gap length  0:00:01.17
     Peak level 97.8 %
     Extraction speed 1.2 X
     Track quality 100.0 %
     Test CRC 683E76D3
     Copy CRC 683E76D3
     Track not present in AccurateRip database
     Copy OK
Track  7
     Filename C:\Music\07 - Aliona Moon - O mie [Moldova].wav
     Peak level 99.4 %
     Extraction speed 1.3 X
     Track quality 100.0 %
     Test CRC 5B8D12CA
     Copy CRC 5B8D12CA
     Track not present in AccurateRip database
     Copy OK
Track  8
     Filename C:\Music\08 - Who See; Nina Zizic - Igranka [Montenegro].wav
     Peak level 100.0 %
     Extraction speed 1.3 X
     Track quality 100.0 %
     Test CRC AD9A58E9
     Copy CRC AD9A58E9
     Track not present in AccurateRip database
     Copy OK
Track  9
     Filename C:\Music\09 - Esma Redzepova; Vlatko Lozanoski - Pred da se razdeni [F.Y.R. Macedonia].wav
     Pre-gap length  0:00:01.43
     Peak level 99.9 %
     Extraction speed 1.3 X
     Track quality 100.0 %
     Test CRC 5E1EA02A
     Copy CRC 5E1EA02A
     Track not present in AccurateRip database
     Copy OK
Track 10
     Filename C:\Music\10 - Gianluca Bezzina - Tomorrow [Malta].wav
     Pre-gap length  0:00:01.15
     Peak level 98.5 %
     Extraction speed 1.4 X
     Track quality 100.0 %
     Test CRC 6D59ADBA
     Copy CRC 6D59ADBA
     Track not present in AccurateRip database
     Copy OK
Track 11
     Filename C:\Music\11 - Anouk - Birds [The Netherlands].wav
     Pre-gap length  0:00:01.25
     Peak level 100.0 %
     Extraction speed 1.4 X
     Track quality 100.0 %
     Test CRC D204C38F
     Copy CRC D204C38F
     Track not present in AccurateRip database
     Copy OK
Track 12
     Filename C:\Music\12 - Margaret Berger - I feed you my love [Norway].wav
     Pre-gap length  0:00:01.42
     Peak level 100.0 %
     Extraction speed 1.4 X
     Track quality 100.0 %
     Test CRC 41C9E773
     Copy CRC 41C9E773
     Track not present in AccurateRip database
     Copy OK
Track 13
     Filename C:\Music\13 - Cezar - It's my life [Romania].wav
     Peak level 96.8 %
     Extraction speed 1.5 X
     Track quality 100.0 %
     Test CRC 0FF23D85
     Copy CRC 0FF23D85
     Track not present in AccurateRip database
     Copy OK
Track 14
     Filename C:\Music\14 - Moje 3 - Ljubav je svuda [Serbia].wav
     Pre-gap length  0:00:01.73
     Peak level 98.9 %
     Extraction speed 1.5 X
     Track quality 100.0 %
     Test CRC FE0561DC
     Copy CRC FE0561DC
     Track not present in AccurateRip database
     Copy OK
Track 15
     Filename C:\Music\15 - Dina Fagimowna Garipowa - What if [Russia].wav
     Peak level 98.9 %
     Extraction speed 1.6 X
     Track quality 100.0 %
     Test CRC 549601DE
     Copy CRC 549601DE
     Track not present in AccurateRip database
     Copy OK
Track 16
     Filename C:\Music\16 - Robin Stjernberg - You [Sweden].wav
     Pre-gap length  0:00:01.00
     Peak level 99.2 %
     Extraction speed 1.6 X
     Track quality 100.0 %
     Test CRC 9866FCED
     Copy CRC 9866FCED
     Track not present in AccurateRip database
     Copy OK
Track 17
     Filename C:\Music\17 - Hannah Mancini - Straight into love [Slovenia].wav
     Peak level 98.0 %
     Extraction speed 1.4 X
     Track quality 99.9 %
     Test CRC BF3F75BD
     Copy CRC BF3F75BD
     Track not present in AccurateRip database
     Copy OK
Track 18
     Filename C:\Music\18 - Valentina Monetta - Crisalide (Vola) [San Marino].wav
     Peak level 98.9 %
     Extraction speed 1.4 X
     Track quality 99.9 %
     Test CRC 63D15B53
     Copy CRC 63D15B53
     Track not present in AccurateRip database
     Copy OK
Track 19
     Filename C:\Music\19 - Zlata Ohnewitsch - Gravity [Ukraine].wav
     Peak level 96.6 %
     Extraction speed 1.7 X
     Track quality 100.0 %
     Test CRC 0ADA4EC7
     Copy CRC 0ADA4EC7
     Track not present in AccurateRip database
     Copy OK
None of the tracks are present in the AccurateRip database
No errors occurred
End of status report
==== Log checksum EAAC33798517D63CE8CCB405AF41AF106A8C16952B11DCB72268953F771EF3F3 ====

Отчёт auCDtect Task Manager&#58;

-----------------------
DON'T MODIFY THIS FILE
-----------------------
PERFORMER: auCDtect Task Manager, ver. 1.5.1RC3 build 1.5.1.4
Copyright (c) 2008-2010 y-soft. All rights reserved
http://y-soft.org
ANALYZER: auCDtect: CD records authenticity detector, version 0.8.2
Copyright (c) 2004 Oleg Berngardt. All rights reserved.
Copyright (c) 2004 Alexander Djourik. All rights reserved.
FILE: 19 - Zlata Ohnewitsch - Gravity [Ukraine].flac
  Size: 22288131 Hash: ECF75201AF61DC18000513FD2CB43DDF Accuracy: -m0
  Conclusion: CDDA 100%
  Signature: C6709B2808C0EA672C333B8899607593F52D48AC
FILE: 18 - Valentina Monetta - Crisalide (Vola) [San Marino].flac
  Size: 21612747 Hash: 82BEF5D4860C9AB6320C7AFA56F0434B Accuracy: -m0
  Conclusion: CDDA 100%
  Signature: E25F16B508D3387F4142F2710611767D2CA3935F
FILE: 17 - Hannah Mancini - Straight into love [Slovenia].flac
  Size: 24161749 Hash: 765853DC2AEDB9E6DBA19956AE349474 Accuracy: -m0
  Conclusion: CDDA 100%
  Signature: 76A9FFF15C89FE59B7479B42CDCB1865D75E5B6D
FILE: 16 - Robin Stjernberg - You [Sweden].flac
  Size: 21560435 Hash: 63DD92A373850F3AE9E1B821E092E308 Accuracy: -m0
  Conclusion: CDDA 100%
  Signature: A5D67F10083B43A339F578314263C010EA761F1D
FILE: 15 - Dina Fagimowna Garipowa - What if [Russia].flac
  Size: 22794805 Hash: B2002DF3B805FD079B99891F5B26A505 Accuracy: -m0
  Conclusion: CDDA 100%
  Signature: 07075FC235E2A05BC6C15F26B05AA6AC583004DB
FILE: 14 - Moje 3 - Ljubav je svuda [Serbia].flac
  Size: 24462633 Hash: 2E0B85CE481BA26326F5F489CD606E31 Accuracy: -m0
  Conclusion: CDDA 100%
  Signature: 390A98240FC89C3B92D744908C423AF6A6D7429C
FILE: 13 - Cezar - It's my life [Romania].flac
  Size: 23040504 Hash: 7F6DA3E18B2F95571E3F18C1CE74D7B8 Accuracy: -m0
  Conclusion: CDDA 100%
  Signature: 07ADEE64180BA8B6054391C61AFBD3B5CE436FBC
FILE: 12 - Margaret Berger - I feed you my love [Norway].flac
  Size: 23809654 Hash: A8D060CD2071EB4142019A498118DFE6 Accuracy: -m0
  Conclusion: CDDA 100%
  Signature: 801F83667FD320CAF00EB70D3015733A42176CFD
FILE: 11 - Anouk - Birds [The Netherlands].flac
  Size: 19810915 Hash: 255328A5EE2ADE7C00B4A9C3CACD5AC0 Accuracy: -m0
  Conclusion: MPEG 100%
  Signature: 707BF3B1F2BB8FE959ACB15C083015775FA0AF31
FILE: 10 - Gianluca Bezzina - Tomorrow [Malta].flac
  Size: 22026908 Hash: 5AAAE231638190482332EF8A144FFA7F Accuracy: -m0
  Conclusion: CDDA 100%
  Signature: A8D892AE0238670AF7FAD0C131200F9921A806D0
FILE: 09 - Esma Redzepova; Vlatko Lozanoski - Pred da se razdeni [F.Y.R. Macedonia].flac
  Size: 24319539 Hash: 84C42F8E898C6D2E18B0CE503B6B1406 Accuracy: -m0
  Conclusion: CDDA 100%
  Signature: A2524054BF58224D21847D3A35B8384C2C2DA64D
FILE: 08 - Who See; Nina Zizic - Igranka [Montenegro].flac
  Size: 23915794 Hash: E05E1C7E88D3AAB6C56C7D82D46BED70 Accuracy: -m0
  Conclusion: CDDA 100%
  Signature: B105201525A590F8FFC579D078DFD6204EB5EBB6
FILE: 07 - Aliona Moon - O mie [Moldova].flac
  Size: 22019059 Hash: B37E743C877DF849C97F16FF6BED5C17 Accuracy: -m0
  Conclusion: CDDA 100%
  Signature: E9EE869362B7E34B3FE55D925AE0119F11CE25C5
FILE: 06 - PeR - Here we go [Latvia].flac
  Size: 22749032 Hash: 86D38E1CCDB97013D1606229761016E2 Accuracy: -m0
  Conclusion: CDDA 100%
  Signature: 4CC0400C60EB395F3EB952218C199A616CE85F8C
FILE: 05 - Andrius Pojavis - Something [Lithuania].flac
  Size: 21307907 Hash: 71E5922528232097B32D9DE6A2A05C85 Accuracy: -m0
  Conclusion: CDDA 100%
  Signature: B88CB6CF1FAAD423FDA3DE5D81804A25ED1AB00C
FILE: 04 - Marco Mengoni - L'essenziale [Italy].flac
  Size: 22892008 Hash: 18E5A314AD9F53C7F65558DB09C83B24 Accuracy: -m0
  Conclusion: CDDA 99%
  Signature: B5BEAE9FBDDBEB0ACDAF92BFA76062F503BE116A
FILE: 03 - Eybor Ingi Gunnlaugsson - Eg a lif [Iceland].flac
  Size: 20132708 Hash: 91F05DD2FE50DA98A92348C657C59E46 Accuracy: -m0
  Conclusion: CDDA 100%
  Signature: 291D210BFC9DB7669FFFC6A27995DB15571EB6C1
FILE: 02 - Moran Mazor - Rak bishvilo [Israel].flac
  Size: 21820591 Hash: 964353C206B7C906E1DF974F3AC97784 Accuracy: -m0
  Conclusion: CDDA 100%
  Signature: 96617A9E718D1DAB1B33E13152325B6CD7E48531
FILE: 01 - Ryan Dolan - Only love survives [Ireland].flac
  Size: 23774278 Hash: 05CBB2BAE652528F56ECF58D31098920 Accuracy: -m0
  Conclusion: CDDA 100%
  Signature: 53C54878667C8BA2F49DAE3806C4495508197A24
-
Яндекс.Метрика
Рейтинг@Mail.ru