[ Сегодня на трекере фрилич! Идет свободное скачивание без начисления Download ]

DJ Bobo - World In Motion (1996) [FLAC|Lossless]<Eurodance>

 

Создавать темы 17-Дек-2014 11:54

-DJ Bobo - World In Motion (1996)- Год: 1996
Жанр: Eurodance
Кодек: FLAC
Битрейт: Lossless
Тип рипа: Image+cue
Label: BPI
Catalog #: BP CD 005
Трек лист:
Продолжительность: 00:55:35
01. Respect Yourself
02. Pray
03. World In Motion
04. It's My Life
05. Let Me Feel The Love
06. We Are Children
07. Midnight
08. Shadows Of The Night
09. Don't Stop The Music
10. For Now And Forever
11. Tell Me When
12. The Colour Of Freedom
13. Interlude
14. Wonderful World
15. World In Motion (Gira El Mundo)

Отчёт ЕАС&#58;

Exact Audio Copy V1.0 beta 3 from 29. August 2011
EAC extraction logfile from 8. April 2013, 21:31
DJ BoBo / World In Motion
Used drive  : ATAPI   iHAS124   C   Adapter: 3  ID: 0
Read mode               : Secure
Utilize accurate stream : Yes
Defeat audio cache      : Yes
Make use of C2 pointers : No
Read offset correction                      : 6
Overread into Lead-In and Lead-Out          : No
Fill up missing offset samples with silence : Yes
Delete leading and trailing silent blocks   : No
Null samples used in CRC calculations       : Yes
Used interface                              : Native Win32 interface for Win NT & 2000
Used output format              : User Defined Encoder
Selected bitrate                : 896 kBit/s
Quality                         : High
Add ID3 tag                     : No
Command line compressor         : C:\Program Files (x86)\Exact Audio Copy\Flac\flac.exe
Additional command line options : -V -8 -T "Artist=%artist%" -T "Title=%title%" -T "Album=%albumtitle%" -T "Date=%year%" -T "Tracknumber=%tracknr%" -T "Genre=%genre%" -T "Comment=ripped by alxsha" %source%
TOC of the extracted CD
     Track |   Start  |  Length  | Start sector | End sector
    ---------------------------------------------------------
        1  |  0:00.00 |  4:27.60 |         0    |    20084
        2  |  4:27.60 |  3:53.25 |     20085    |    37584
        3  |  8:21.10 |  4:53.52 |     37585    |    59611
        4  | 13:14.62 |  4:14.65 |     59612    |    78726
        5  | 17:29.52 |  4:20.25 |     78727    |    98251
        6  | 21:50.02 |  4:04.13 |     98252    |   116564
        7  | 25:54.15 |  0:20.67 |    116565    |   118131
        8  | 26:15.07 |  5:42.73 |    118132    |   143854
        9  | 31:58.05 |  3:59.25 |    143855    |   161804
       10  | 35:57.30 |  4:30.65 |    161805    |   182119
       11  | 40:28.20 |  4:12.27 |    182120    |   201046
       12  | 44:40.47 |  4:48.23 |    201047    |   222669
       13  | 49:28.70 |  0:21.12 |    222670    |   224256
       14  | 49:50.07 |  3:25.13 |    224257    |   239644
       15  | 53:15.20 |  2:19.22 |    239645    |   250091
Range status and errors
Selected range
     Filename D:\DJ BoBo - World In Motion.wav
     Peak level 99.0 %
     Extraction speed 8.8 X
     Range quality 100.0 %
     Test CRC D5CAE56E
     Copy CRC D5CAE56E
     Copy OK
No errors occurred
AccurateRip summary
Track  1  accurately ripped (confidence 5)  [F35D4766]  (AR v2)
Track  2  accurately ripped (confidence 5)  [81D092DD]  (AR v2)
Track  3  accurately ripped (confidence 5)  [D97BA803]  (AR v2)
Track  4  accurately ripped (confidence 5)  [DD51E13E]  (AR v2)
Track  5  accurately ripped (confidence 5)  [5775C72A]  (AR v2)
Track  6  accurately ripped (confidence 5)  [0064E29B]  (AR v2)
Track  7  accurately ripped (confidence 5)  [2F1ED8D0]  (AR v2)
Track  8  accurately ripped (confidence 5)  [A8E7C4A2]  (AR v2)
Track  9  accurately ripped (confidence 5)  [C863ACDF]  (AR v2)
Track 10  accurately ripped (confidence 5)  [E69A0909]  (AR v2)
Track 11  accurately ripped (confidence 5)  [FA31657F]  (AR v2)
Track 12  accurately ripped (confidence 5)  [4761BCD6]  (AR v2)
Track 13  accurately ripped (confidence 5)  [F4CA6031]  (AR v2)
Track 14  accurately ripped (confidence 5)  [A3EB66C4]  (AR v2)
Track 15  accurately ripped (confidence 5)  [C8AF7736]  (AR v2)
All tracks accurately ripped
End of status report
==== Log checksum 1847AE5C8347762CBFC9454D6620A67E5C2748EDEA8D24612E751B64F194EB73 ====

Отчёт auCDtect Task manager&#58;

-----------------------
DON'T MODIFY THIS FILE
-----------------------
PERFORMER: auCDtect Task Manager, ver. 1.6.0 RC1 build 1.6.0.1
Copyright (c) 2008-2010 y-soft. All rights reserved
http://y-soft.org
ANALYZER: auCDtect: CD records authenticity detector, version 0.8.2
Copyright (c) 2004 Oleg Berngardt. All rights reserved.
Copyright (c) 2004 Alexander Djourik. All rights reserved.
FILE: DJ BoBo - World In Motion.flac
  Size: 392865722 Hash: 0DAE0008D50F3D47DA5A606636E10F47 Accuracy: -m0
  Conclusion: CDDA 100%
  Signature: A98345046111E9879DC3202AADA5924BB09DE22D

Содержание файла .cue&#58;

REM GENRE Pop
REM DATE 1996
REM DISCID D80D060F
REM COMMENT "ExactAudioCopy v1.0b3"
PERFORMER "DJ BoBo"
TITLE "World In Motion"
FILE "DJ BoBo - World In Motion.flac" WAVE
  TRACK 01 AUDIO
    TITLE "Respect Yourself"
    PERFORMER "DJ BoBo"
    INDEX 01 00:00:00
  TRACK 02 AUDIO
    TITLE "Pray"
    PERFORMER "DJ BoBo"
    INDEX 00 04:25:12
    INDEX 01 04:27:60
  TRACK 03 AUDIO
    TITLE "World In Motion"
    PERFORMER "DJ BoBo"
    INDEX 00 08:18:38
    INDEX 01 08:21:10
  TRACK 04 AUDIO
    TITLE "It's My Life"
    PERFORMER "DJ BoBo"
    INDEX 00 13:12:74
    INDEX 01 13:14:62
  TRACK 05 AUDIO
    TITLE "Let Me Feel The Love"
    PERFORMER "DJ BoBo"
    INDEX 00 17:28:09
    INDEX 01 17:29:52
  TRACK 06 AUDIO
    TITLE "We Are Children"
    PERFORMER "DJ BoBo"
    INDEX 00 21:47:35
    INDEX 01 21:50:02
  TRACK 07 AUDIO
    TITLE "Midnight"
    PERFORMER "DJ BoBo"
    INDEX 00 25:51:35
    INDEX 01 25:54:15
  TRACK 08 AUDIO
    TITLE "Shadows Of The Night"
    PERFORMER "DJ BoBo"
    INDEX 00 26:15:05
    INDEX 01 26:15:07
  TRACK 09 AUDIO
    TITLE "Don't Stop The Music"
    PERFORMER "DJ BoBo"
    INDEX 00 31:56:00
    INDEX 01 31:58:05
  TRACK 10 AUDIO
    TITLE "For Now And Forever"
    PERFORMER "DJ BoBo"
    INDEX 00 35:55:13
    INDEX 01 35:57:30
  TRACK 11 AUDIO
    TITLE "Tell Me When"
    PERFORMER "DJ BoBo"
    INDEX 00 40:28:18
    INDEX 01 40:28:20
  TRACK 12 AUDIO
    TITLE "The Colour Of Freedom"
    PERFORMER "DJ BoBo"
    INDEX 00 44:40:45
    INDEX 01 44:40:47
  TRACK 13 AUDIO
    TITLE "Interlude"
    PERFORMER "DJ BoBo"
    INDEX 00 49:26:54
    INDEX 01 49:28:70
  TRACK 14 AUDIO
    TITLE "Wonderful World"
    PERFORMER "DJ BoBo"
    INDEX 00 49:50:05
    INDEX 01 49:50:07
  TRACK 15 AUDIO
    TITLE "World In Motion (Gira El Mundo)"
    PERFORMER "DJ BoBo"
    INDEX 00 53:13:13
    INDEX 01 53:15:20
-
Яндекс.Метрика
Рейтинг@Mail.ru