[ Сегодня на трекере фрилич! Идет свободное скачивание без начисления Download ]

VA - Суперхиты дискотеки 90-х (2010) [FLAC|Lossless]<Pop, EuroDance>

 

Создавать темы 17-Дек-2014 11:54

-VA - Суперхиты дискотеки 90-х (2010)- Год: 2010 | Жанр: Pop, EuroDance
Лейбл: Nikitin | Каталог#: ФГН-CD 014/10
Продолжительность: 01:18:55-Кодек: FLAC | Битрейт: Lossless | Тип рипа: image + .cue-Трек лист:
01. Ace Of Base - All That She Wants (3:35)
02. The Beloved - Sweet Harmony (4:17)
03. Captain Hollywood - More & More (3:59)
04. Haddaway - What Is Love (4:31)
05. Ice MС - Think About the Way (4:22)
06. Prince Ital Joe feat. Marky Mark - United (4:02)
07. Yaki-Da - I Saw You Dancing (3:51)
08. Jessica Jay - Casablanca (4:05)
09. E-Rotic - Help Me Dr.Dick (3:44)
10. Chyp-Notic - Nothing Compares 2 U (4:53)
11. X-Perience - Neverending Dreams (3:30)
12. Ice MС - It's a Rainy Day (4:14)
13. E-Rotic - Max Don't Have Sex With Your Ex (3:31)
14. Haddaway - Life (4:17)
15. Bingoboys - No Communication (4:35)
16. Snow - Informer (3:30)
17. Cher - Strong Enough (3:34)
18. Antique - Opa Opa (3:38)
19. Wamdue Project - King Of My Castle (3:30)
20. Darude - Sandstorm (3:46)

Отчёт ЕАС&#58;

Exact Audio Copy V1.0 beta 1 from 15. November 2010
EAC extraction logfile from 8. October 2012, 22:31
Various Artists / Суперхиты дискотеки 90х (2010)
Used drive  : PIONEER DVD-RW  DVR-110D   Adapter: 2  ID: 2
Read mode               : Secure
Utilize accurate stream : Yes
Defeat audio cache      : Yes
Make use of C2 pointers : No
Read offset correction                      : 48
Overread into Lead-In and Lead-Out          : No
Fill up missing offset samples with silence : Yes
Delete leading and trailing silent blocks   : No
Null samples used in CRC calculations       : Yes
Used interface                              : Native Win32 interface for Win NT & 2000
Used output format              : User Defined Encoder
Selected bitrate                : 768 kBit/s
Quality                         : High
Add ID3 tag                     : No
Command line compressor         : C:\Program Files\Exact Audio Copy\FLAC\FLAC.EXE
Additional command line options : -6 -V -T "ARTIST=%a" -T "TITLE=%t" -T "ALBUM=%g" -T "DATE=%y" -T "TRACKNUMBER=%n" -T "GENRE=%m" -T "COMMENT=%e" %j--picture="%i"%j %s -o %d
TOC of the extracted CD
     Track |   Start  |  Length  | Start sector | End sector
    ---------------------------------------------------------
        1  |  0:00.00 |  3:35.01 |         0    |    16125
        2  |  3:35.01 |  4:16.72 |     16126    |    35397
        3  |  7:51.73 |  3:58.67 |     35398    |    53314
        4  | 11:50.65 |  4:30.46 |     53315    |    73610
        5  | 16:21.36 |  4:21.53 |     73611    |    93238
        6  | 20:43.14 |  4:02.15 |     93239    |   111403
        7  | 24:45.29 |  3:50.68 |    111404    |   128721
        8  | 28:36.22 |  4:05.17 |    128722    |   147113
        9  | 32:41.39 |  3:43.47 |    147114    |   163885
       10  | 36:25.11 |  4:53.04 |    163886    |   185864
       11  | 41:18.15 |  3:30.36 |    185865    |   201650
       12  | 44:48.51 |  4:14.10 |    201651    |   220710
       13  | 49:02.61 |  3:30.51 |    220711    |   236511
       14  | 52:33.37 |  4:17.08 |    236512    |   255794
       15  | 56:50.45 |  4:35.22 |    255795    |   276441
       16  | 61:25.67 |  3:29.58 |    276442    |   292174
       17  | 64:55.50 |  3:33.72 |    292175    |   308221
       18  | 68:29.47 |  3:37.71 |    308222    |   324567
       19  | 72:07.43 |  3:29.54 |    324568    |   340296
       20  | 75:37.22 |  3:45.38 |    340297    |   357209
Range status and errors
Selected range
     Filename D:\rip.flacmusic.ru\Various Artists - Суперхиты дискотеки 90х (2010).wav
     Peak level 100.0 %
     Extraction speed 0.0 X
     Range quality 99.9 %
     Test CRC 14F52208
     Copy CRC 14F52208
     Copy OK
No errors occurred
AccurateRip summary
Track  1  not present in database
Track  2  not present in database
Track  3  not present in database
Track  4  not present in database
Track  5  not present in database
Track  6  not present in database
Track  7  not present in database
Track  8  not present in database
Track  9  not present in database
Track 10  not present in database
Track 11  not present in database
Track 12  not present in database
Track 13  not present in database
Track 14  not present in database
Track 15  not present in database
Track 16  not present in database
Track 17  not present in database
Track 18  not present in database
Track 19  not present in database
Track 20  not present in database
None of the tracks are present in the AccurateRip database
End of status report
==== Log checksum 0A082EF3C18C8D19F5DBD2C2F2DB7F5245EB2C0C355FEF9C04DD4653ED2F2443 ====

auCDtect Task Manager

-----------------------
DON'T MODIFY THIS FILE
-----------------------
PERFORMER: auCDtect Task Manager, ver. 1.5.1RC6 build 1.5.1.7
Copyright (c) 2008-2010 y-soft. All rights reserved
http://y-soft.org
ANALYZER: auCDtect: CD records authenticity detector, version 0.8.2
Copyright (c) 2004 Oleg Berngardt. All rights reserved.
Copyright (c) 2004 Alexander Djourik. All rights reserved.
FILE: Various Artists - Суперхиты дискотеки 90х (2010).flac
  Size: 559071738 Hash: 63388A360EEE100CB52E7A8B344C896A Accuracy: -m0
  Conclusion: CDDA 99%
  Signature: D848D54BB3FA716859F3EB486BC745B86AD51A3B

Содержимое индексной карты .cue&#58;

REM GENRE Eurodance
REM DATE 2010
REM DISCID 3A129A14
REM COMMENT "ExactAudioCopy v1.0b1"
PERFORMER "Various Artists"
TITLE "Суперхиты дискотеки 90х (2010)"
FILE "Various Artists - Суперхиты дискотеки 90х (2010).flac" WAVE
  TRACK 01 AUDIO
    TITLE "All That She Wants"
    PERFORMER "Ace Of Base"
    INDEX 01 00:00:00
  TRACK 02 AUDIO
    TITLE "Sweet Harmony"
    PERFORMER "The Beloved"
    INDEX 00 03:34:01
    INDEX 01 03:35:01
  TRACK 03 AUDIO
    TITLE "More & More"
    PERFORMER "Captain Hollywood"
    INDEX 00 07:50:73
    INDEX 01 07:51:73
  TRACK 04 AUDIO
    TITLE "What Is Love"
    PERFORMER "Haddaway"
    INDEX 00 11:49:65
    INDEX 01 11:50:65
  TRACK 05 AUDIO
    TITLE "Think About the Way"
    PERFORMER "Ice MС"
    INDEX 00 16:20:36
    INDEX 01 16:21:36
  TRACK 06 AUDIO
    TITLE "United"
    PERFORMER "Prince Ital Joe feat. Marky Mark"
    INDEX 00 20:42:14
    INDEX 01 20:43:14
  TRACK 07 AUDIO
    TITLE "I Saw You Dancing"
    PERFORMER "Yaki-Da"
    INDEX 00 24:44:29
    INDEX 01 24:45:29
  TRACK 08 AUDIO
    TITLE "Casablanca"
    PERFORMER "Jessica Jay"
    INDEX 00 28:35:22
    INDEX 01 28:36:22
  TRACK 09 AUDIO
    TITLE "Help Me Dr.Dick"
    PERFORMER "E-Rotic"
    INDEX 00 32:40:39
    INDEX 01 32:41:39
  TRACK 10 AUDIO
    TITLE "Nothing Compares 2 U"
    PERFORMER "Chyp-Notic"
    INDEX 00 36:24:11
    INDEX 01 36:25:11
  TRACK 11 AUDIO
    TITLE "Neverending Dreams"
    PERFORMER "X-Perience"
    INDEX 00 41:17:15
    INDEX 01 41:18:15
  TRACK 12 AUDIO
    TITLE "It's a Rainy Day"
    PERFORMER "Ice MС"
    INDEX 00 44:47:51
    INDEX 01 44:48:51
  TRACK 13 AUDIO
    TITLE "Max Don't Have Sex With Your Ex"
    PERFORMER "E-Rotic"
    INDEX 00 49:01:61
    INDEX 01 49:02:61
  TRACK 14 AUDIO
    TITLE "Life"
    PERFORMER "Haddaway"
    INDEX 00 52:32:37
    INDEX 01 52:33:37
  TRACK 15 AUDIO
    TITLE "No Communication"
    PERFORMER "Bingoboys"
    INDEX 00 56:49:45
    INDEX 01 56:50:45
  TRACK 16 AUDIO
    TITLE "Informer"
    PERFORMER "Snow"
    INDEX 00 61:24:67
    INDEX 01 61:25:67
  TRACK 17 AUDIO
    TITLE "Strong Enough"
    PERFORMER "Cher"
    INDEX 00 64:54:50
    INDEX 01 64:55:50
  TRACK 18 AUDIO
    TITLE "Opa Opa"
    PERFORMER "Antique"
    INDEX 00 68:28:47
    INDEX 01 68:29:47
  TRACK 19 AUDIO
    TITLE "King Of My Castle"
    PERFORMER "Wamdue Project"
    INDEX 00 72:06:43
    INDEX 01 72:07:43
  TRACK 20 AUDIO
    TITLE "Sandstorm"
    PERFORMER "Darude"
    INDEX 00 75:36:22
    INDEX 01 75:37:22
-
Яндекс.Метрика
Рейтинг@Mail.ru