Captain Jack - Operation Dance (Japanese Release) (1997) [FLAC|Lossless]<Eurodance>

 

Создавать темы 17-Дек-2014 11:54

-Captain Jack - Operation Dance (Japanese Release) (1997)- Год: 1997
Издатель (лейбл): Intercord Japan
Номер по каталогу: TOCP-4037
Жанр: Eurodance
Продолжительность: 01:00:54-Кодек: FLAC (*.flac)
Битрейт: Lossless
Тип рипа: image+.cue-Трек лист:
01. Operation Dance (Intro) 1:10
02. Together And Forever (Radio Mix One) 3:25
03. Secret Agent (007 Radio Mix) 3:38
04. Summer Summerday (Salsa Mix) 3:44
05. Follow Me (303 Radio Mix) 3:50
06. Holiday (New Radio Mix) 3:46
07. Touchdown (Superbowl Mix) 3:46
08. 7 Days (Radio Edit) 3:44
09. Sing A Song (Short Mix) 3:19
10. Summertime (Short Mix) 3:53
11. Outer Space (Trance Mix) 6:53
12. Secret Agent (In Da Bass Mix) 4:22
13. Together And Forever (Underworld Mix) 4:49
14. Last Order To Dance (Outro) 1:03
Bonus Tracks for Japan:
15. Movin & Groovin (806 Mix) 3:37
16. Bits & Bytes (Instrumental Mix) 5:20

Отчёт ЕАС&#58;

Exact Audio Copy V0.99 prebeta 5 from 4. May 2009
EAC extraction logfile from 11. December 2009, 20:12
Captain Jack / Operation Dance
Used drive  : _NEC    DVD_RW ND-4571A   Adapter: 0  ID: 2
Read mode               : Secure
Utilize accurate stream : Yes
Defeat audio cache      : Yes
Make use of C2 pointers : No
Read offset correction                      : 48
Overread into Lead-In and Lead-Out          : No
Fill up missing offset samples with silence : Yes
Delete leading and trailing silent blocks   : No
Null samples used in CRC calculations       : Yes
Used interface                              : Native Win32 interface for Win NT & 2000
Used output format              : User Defined Encoder
Selected bitrate                : 768 kBit/s
Quality                         : High
Add ID3 tag                     : No
Command line compressor         : C:\Program Files\Exact Audio Copy\FLAC\FLAC.EXE
Additional command line options : -6 -V -T "ARTIST=%a" -T "TITLE=%t" -T "ALBUM=%g" -T "DATE=%y" -T "TRACKNUMBER=%n" -T "GENRE=%m" -T "COMMENT=%e" %s -o %d
TOC of the extracted CD
     Track |   Start  |  Length  | Start sector | End sector
    ---------------------------------------------------------
        1  |  0:00.00 |  1:10.37 |         0    |     5286
        2  |  1:10.37 |  3:26.28 |      5287    |    20764
        3  |  4:36.65 |  3:40.32 |     20765    |    37296
        4  |  8:17.22 |  3:46.05 |     37297    |    54251
        5  | 12:03.27 |  3:51.35 |     54252    |    71611
        6  | 15:54.62 |  3:47.63 |     71612    |    88699
        7  | 19:42.50 |  3:48.60 |     88700    |   105859
        8  | 23:31.35 |  3:46.15 |    105860    |   122824
        9  | 27:17.50 |  3:22.00 |    122825    |   137974
       10  | 30:39.50 |  3:55.10 |    137975    |   155609
       11  | 34:34.60 |  6:55.62 |    155610    |   186796
       12  | 41:30.47 |  4:24.40 |    186797    |   206636
       13  | 45:55.12 |  4:50.50 |    206637    |   228436
       14  | 50:45.62 |  1:08.60 |    228437    |   233596
       15  | 51:54.47 |  3:39.08 |    233597    |   250029
       16  | 55:33.55 |  5:20.25 |    250030    |   274054
Range status and errors
Selected range
     Filename M:\Свои\Captain Jack - 1997 - Operation Dance (Japanese Release).wav
     Peak level 100.0 %
     Range quality 100.0 %
     Test CRC AED5C8DF
     Copy CRC AED5C8DF
     Copy OK
No errors occurred
AccurateRip summary
Track  1  not present in database
Track  2  not present in database
Track  3  not present in database
Track  4  not present in database
Track  5  not present in database
Track  6  not present in database
Track  7  not present in database
Track  8  not present in database
Track  9  not present in database
Track 10  not present in database
Track 11  not present in database
Track 12  not present in database
Track 13  not present in database
Track 14  not present in database
Track 15  not present in database
Track 16  not present in database
None of the tracks are present in the AccurateRip database
End of status report

Отчёт auCDtect Task manager&#58;

-----------------------
DON'T MODIFY THIS FILE
-----------------------
PERFORMER: auCDtect Task Manager, ver. 1.6.0 RC1 build 1.6.0.1
Copyright (c) 2008-2010 y-soft. All rights reserved
http://y-soft.org
ANALYZER: auCDtect: CD records authenticity detector, version 0.8.2
Copyright (c) 2004 Oleg Berngardt. All rights reserved.
Copyright (c) 2004 Alexander Djourik. All rights reserved.
FILE: Captain Jack - Operation Dance.flac
  Size: 442264949 Hash: E0195C8A8C37FE6EDB4180ACE35CB69C Accuracy: -m0
  Conclusion: CDDA 100%
  Signature: 29429BFFE54532CE5044F4577390BC9A69C240BD
-
Яндекс.Метрика
Рейтинг@Mail.ru