VA - Суперхиты дискотеки 90-х... продолжение (2011) [FLAC|Lossless]<Pop, EuroDance>

 

Создавать темы 17-Дек-2014 11:54

-VA - Суперхиты дискотеки 90-х... продолжение (2011)- Год: 2011 | Жанр: Pop, EuroDance
Лейбл: Nikitin | Каталог#: МДС-CD 013/11
Продолжительность: 01:18:55-Кодек: FLAC | Битрейт: Lossless | Тип рипа: image + .cue-Трек лист:
01. East 17 - It's Alright (4:43)
02. E-Type - Set the World on Fire (3:46)
03. Captain Hollywood - Over and Over (3:47)
04. DJ BoBo - Take Control (3:48)
05. Ardis - Ain't Nobody's Business (3:16)
06. Mr.President - Coco Jambo (3:41)
07. Sonic Dream Collective - Don't Go Breaking My Heart (3:57)
08. Gala - Freed from Desire (3:37)
09. Jimmy Somerville - Comment Te Dire Adieu (3:39)
10. Haddaway - Rock My Heart (4:11)
11. Captain Hollywood - Flying High (3:48)
12. Mo-Do - Eins, Zwei, Polizei (4:25)
13. Dj Miko - What's Up (Extended Version) (5:17)
14. Haddaway - What About Me (4:08)
15. DJ BoBo - Everybody (3:56)
16. Sonic Dream Collective - Oh, Baby All (3:51)
17. E-Rotic - Fred Come to Bed (3:58)
18. Haddaway - Fly Away (4:06)
19. Mr.President - Keep It Up! (3:13)
20. Ice MC - Easy (3:47)

Отчёт ЕАС&#58;

Exact Audio Copy V1.0 beta 1 from 15. November 2010
EAC extraction logfile from 20. October 2012, 15:54
Various Artisrts / Суперхиты дискотеки 90х (2011)
Used drive  : PIONEER DVD-RW  DVR-110D   Adapter: 2  ID: 2
Read mode               : Secure
Utilize accurate stream : Yes
Defeat audio cache      : Yes
Make use of C2 pointers : No
Read offset correction                      : 48
Overread into Lead-In and Lead-Out          : No
Fill up missing offset samples with silence : Yes
Delete leading and trailing silent blocks   : No
Null samples used in CRC calculations       : Yes
Used interface                              : Native Win32 interface for Win NT & 2000
Used output format              : User Defined Encoder
Selected bitrate                : 768 kBit/s
Quality                         : High
Add ID3 tag                     : No
Command line compressor         : C:\Program Files\Exact Audio Copy\FLAC\FLAC.EXE
Additional command line options : -6 -V -T "ARTIST=%a" -T "TITLE=%t" -T "ALBUM=%g" -T "DATE=%y" -T "TRACKNUMBER=%n" -T "GENRE=%m" -T "COMMENT=%e" %j--picture="%i"%j %s -o %d
TOC of the extracted CD
     Track |   Start  |  Length  | Start sector | End sector
    ---------------------------------------------------------
        1  |  0:00.00 |  4:42.72 |         0    |    21221
        2  |  4:42.72 |  3:46.27 |     21222    |    38198
        3  |  8:29.24 |  3:46.66 |     38199    |    55214
        4  | 12:16.15 |  3:48.17 |     55215    |    72331
        5  | 16:04.32 |  3:16.33 |     72332    |    87064
        6  | 19:20.65 |  3:41.12 |     87065    |   103651
        7  | 23:02.02 |  3:56.46 |    103652    |   121397
        8  | 26:58.48 |  3:36.72 |    121398    |   137669
        9  | 30:35.45 |  3:39.36 |    137670    |   154130
       10  | 34:15.06 |  4:11.34 |    154131    |   172989
       11  | 38:26.40 |  3:48.00 |    172990    |   190089
       12  | 42:14.40 |  4:24.42 |    190090    |   209931
       13  | 46:39.07 |  5:17.32 |    209932    |   233738
       14  | 51:56.39 |  4:08.08 |    233739    |   252346
       15  | 56:04.47 |  3:55.44 |    252347    |   270015
       16  | 60:00.16 |  3:50.54 |    270016    |   287319
       17  | 63:50.70 |  3:58.21 |    287320    |   305190
       18  | 67:49.16 |  4:05.71 |    305191    |   323636
       19  | 71:55.12 |  3:13.34 |    323637    |   338145
       20  | 75:08.46 |  3:46.59 |    338146    |   355154
Range status and errors
Selected range
     Filename D:\rip.flacmusic.ru\Various Artisrts - Суперхиты дискотеки 90х (2011).wav
     Peak level 100.0 %
     Extraction speed 0.3 X
     Range quality 99.9 %
     Test CRC D2ACC2CE
     Copy CRC D2ACC2CE
     Copy OK
No errors occurred
AccurateRip summary
Track  1  accurately ripped (confidence 1)  [4674BE6F]
Track  2  accurately ripped (confidence 1)  [1C53A491]
Track  3  accurately ripped (confidence 1)  [FECC389D]
Track  4  accurately ripped (confidence 1)  [55BA86C4]
Track  5  accurately ripped (confidence 1)  [2EF3638B]
Track  6  accurately ripped (confidence 1)  [F519C353]
Track  7  accurately ripped (confidence 1)  [56953858]
Track  8  accurately ripped (confidence 1)  [8F189169]
Track  9  accurately ripped (confidence 1)  [64310CFB]
Track 10  accurately ripped (confidence 1)  [8BA749C5]
Track 11  accurately ripped (confidence 1)  [3CBE6219]
Track 12  accurately ripped (confidence 1)  [0C391BC9]
Track 13  accurately ripped (confidence 1)  [602A3591]
Track 14  accurately ripped (confidence 1)  [C65A0CBF]
Track 15  accurately ripped (confidence 1)  [CFD10C15]
Track 16  accurately ripped (confidence 1)  [226C858B]
Track 17  accurately ripped (confidence 1)  [BFCFE983]
Track 18  accurately ripped (confidence 1)  [014A442F]
Track 19  accurately ripped (confidence 1)  [CD214588]
Track 20  accurately ripped (confidence 1)  [DAB96A6A]
All tracks accurately ripped
End of status report
==== Log checksum 68E62914D539F4731018B7320301E104D6A096334E28ACC21DCA4C1FBD8C086A ====

auCDtect Task Manager

-----------------------
DON'T MODIFY THIS FILE
-----------------------
PERFORMER: auCDtect Task Manager, ver. 1.5.1RC6 build 1.5.1.7
Copyright (c) 2008-2010 y-soft. All rights reserved
http://y-soft.org
ANALYZER: auCDtect: CD records authenticity detector, version 0.8.2
Copyright (c) 2004 Oleg Berngardt. All rights reserved.
Copyright (c) 2004 Alexander Djourik. All rights reserved.
FILE: Various Artisrts - Суперхиты дискотеки 90х (2011).flac
  Size: 564004283 Hash: 40F3FE5E807F1661BB1ED82696BFD6C7 Accuracy: -m0
  Conclusion: CDDA 99%
  Signature: 84E31BA928FC480538F62AC60C736B1D17FA51CC

Содержимое индексной карты.cue

REM GENRE Eurodance
REM DATE 2011
REM DISCID 0A127F14
REM COMMENT "ExactAudioCopy v1.0b1"
PERFORMER "Various Artisrts"
TITLE "Суперхиты дискотеки 90х (2011)"
FILE "Various Artisrts - Суперхиты дискотеки 90х (2011).flac" WAVE
  TRACK 01 AUDIO
    TITLE "It's Alright"
    PERFORMER "East 17"
    INDEX 01 00:00:00
  TRACK 02 AUDIO
    TITLE "Set the World on Fire"
    PERFORMER "E-Type"
    INDEX 00 04:40:72
    INDEX 01 04:42:72
  TRACK 03 AUDIO
    TITLE "Over and Over"
    PERFORMER "Captain Hollywood"
    INDEX 00 08:27:24
    INDEX 01 08:29:24
  TRACK 04 AUDIO
    TITLE "Take Control"
    PERFORMER "DJ BoBo"
    INDEX 00 12:14:15
    INDEX 01 12:16:15
  TRACK 05 AUDIO
    TITLE "Ain't Nobody's Business"
    PERFORMER "Ardis"
    INDEX 00 16:02:32
    INDEX 01 16:04:32
  TRACK 06 AUDIO
    TITLE "Coco Jambo"
    PERFORMER "Mr.President"
    INDEX 00 19:18:65
    INDEX 01 19:20:65
  TRACK 07 AUDIO
    TITLE "Don't Go Breaking My Heart"
    PERFORMER "Sonic Dream Collective"
    INDEX 00 23:00:02
    INDEX 01 23:02:02
  TRACK 08 AUDIO
    TITLE "Freed from Desire"
    PERFORMER "Gala"
    INDEX 00 26:56:48
    INDEX 01 26:58:48
  TRACK 09 AUDIO
    TITLE "Comment Te Dire Adieu"
    PERFORMER "Jimmy Somerville"
    INDEX 00 30:33:45
    INDEX 01 30:35:45
  TRACK 10 AUDIO
    TITLE "Rock My Heart"
    PERFORMER "Haddaway"
    INDEX 00 34:13:06
    INDEX 01 34:15:06
  TRACK 11 AUDIO
    TITLE "Flying High"
    PERFORMER "Captain Hollywood"
    INDEX 00 38:24:40
    INDEX 01 38:26:40
  TRACK 12 AUDIO
    TITLE "Eins, Zwei, Polizei"
    PERFORMER "Mo-Do"
    INDEX 00 42:12:40
    INDEX 01 42:14:40
  TRACK 13 AUDIO
    TITLE "What's Up (Extended Version)"
    PERFORMER "Dj Miko"
    INDEX 00 46:37:07
    INDEX 01 46:39:07
  TRACK 14 AUDIO
    TITLE "What About Me"
    PERFORMER "Haddaway"
    INDEX 00 51:54:39
    INDEX 01 51:56:39
  TRACK 15 AUDIO
    TITLE "Everybody"
    PERFORMER "DJ BoBo"
    INDEX 00 56:02:47
    INDEX 01 56:04:47
  TRACK 16 AUDIO
    TITLE "Oh, Baby All"
    PERFORMER "Sonic Dream Collective"
    INDEX 00 59:58:16
    INDEX 01 60:00:16
  TRACK 17 AUDIO
    TITLE "Fred Come to Bed"
    PERFORMER "E-Rotic"
    INDEX 00 63:48:70
    INDEX 01 63:50:70
  TRACK 18 AUDIO
    TITLE "Fly Away"
    PERFORMER "Haddaway"
    INDEX 00 67:47:16
    INDEX 01 67:49:16
  TRACK 19 AUDIO
    TITLE "Keep It Up!"
    PERFORMER "Mr.President"
    INDEX 00 71:53:12
    INDEX 01 71:55:12
  TRACK 20 AUDIO
    TITLE "Easy"
    PERFORMER "Ice MC"
    INDEX 00 75:06:46
    INDEX 01 75:08:46
-
Яндекс.Метрика
Рейтинг@Mail.ru