[ Сегодня на трекере фрилич! Идет свободное скачивание без начисления Download ]

VA - Back To The 90's/EMI (2009) 5CD Box Set [FLAC|Lossless]<Electronic, Rock, Pop, Eurodance, Synth-pop>

 

Создавать темы 17-Дек-2014 11:54

-]VA - Back To The 90's 5CD Box Set- Год: 2009
Страна: Belgium
Жанр: Electronic, Rock, Pop, Eurodance, Synth-pop
Лэйбл: EMI ‎[5099930762725]
Формат: 5xCD, Compilation, Box Set
Аудио Кодек: FLAC
Аудио Битрейт: Lossless
Тип Рипа: Image+.cue+.log
Наличие Сканов: Full
Продолжительность: 06:10:06-Девяностые - года перестройки, время перемен. Музыка 90-х это своеобразный эталон, с которым часто сравнивают новую поп музыку. Для многих это счастливое детство и столь же яркая юность. Окунитесь с головой в атмосферу того времени вместе с компиляцией Back To The 90's. Песни 90-х и по наше дни очень популярны, как среди взрослых людей так и молодежи и этому есть причина. Качество песен 90-х по сравнению с сегодняшней попсой, зачастую гораздо лучше, песни 90-х уже давно стали классикой, на них делают ремиксы и крутят на радио. Эти песни еще долгое время будут звучать в наших сердцах.-Mastered At – Elektropolis
Distributed By – EMI
Marketed By – EMI
Phonographic Copyright (p) – EMI Music Belgium
Copyright (c) – EMI Music Belgium
Manufactured By – takt.eu
-

Треклист&#58;

CD1
Пpoдолжительность: 01:18:07
-Треклист:
01. Robbie Williams - Angels :: 04:23
02. Crowded House - Chocolate Cake :: 03:55
03. Joe Cocker - N'Oubliez Jamais :: 04:48
04. Iggy Pop - Candy :: 04:11
05. R.E.M. - It's the End Of the World As We Know It (And I Feel Fine) :: 04:02
06. Queen - Innuendo :: 06:44
07. Duran Duran - Ordinary World :: 05:35
08. The Backstreet Boys - Get Down :: 03:51
09. Clouseau - Geef Het Op :: 02:47
10. Dusty Springfield - In Private :: 04:18
11. Tina Turner - When the Heartache is Over :: 03:41
12. Soulsister - Tell Me What It Takes :: 03:47
13. Axelle Red - Le Monde Tourne Mal :: 05:16
14. Neneh Cherry - Woman :: 04:25
15. UB40 - (I Can't Help) Falling In Love With You :: 03:26
16. Soul II Soul - A Dream's A Dream :: 05:36
17. Eternal feat. Bebe Winans - I Wanna Be the Only One :: 03:36
18. Lou Bega - Mambo N°5 (A Little Bit Of...) :: 03:38
-

Отчёт EAC&#58;

Exact Audio Copy V1.0 beta 1 from 15. November 2010
EAC extraction logfile from 27. October 2012, 11:49
Various / Back To The 90's (CD1)
Used drive  : PIONEER DVD-RW  DVR-110D   Adapter: 2  ID: 2
Read mode               : Secure
Utilize accurate stream : Yes
Defeat audio cache      : Yes
Make use of C2 pointers : No
Read offset correction                      : 48
Overread into Lead-In and Lead-Out          : No
Fill up missing offset samples with silence : Yes
Delete leading and trailing silent blocks   : No
Null samples used in CRC calculations       : Yes
Used interface                              : Native Win32 interface for Win NT & 2000
Used output format              : User Defined Encoder
Selected bitrate                : 768 kBit/s
Quality                         : High
Add ID3 tag                     : No
Command line compressor         : C:\Program Files\Exact Audio Copy\FLAC\FLAC.EXE
Additional command line options : -6 -V -T "ARTIST=%a" -T "TITLE=%t" -T "ALBUM=%g" -T "DATE=%y" -T "TRACKNUMBER=%n" -T "GENRE=%m" -T "COMMENT=%e" %j--picture="%i"%j %s -o %d
TOC of the extracted CD
     Track |   Start  |  Length  | Start sector | End sector
    ---------------------------------------------------------
        1  |  0:00.00 |  4:23.45 |         0    |    19769
        2  |  4:23.45 |  3:55.72 |     19770    |    37466
        3  |  8:19.42 |  4:48.08 |     37467    |    59074
        4  | 13:07.50 |  4:11.45 |     59075    |    77944
        5  | 17:19.20 |  4:02.15 |     77945    |    96109
        6  | 21:21.35 |  6:44.41 |     96110    |   126450
        7  | 28:06.01 |  5:35.04 |    126451    |   151579
        8  | 33:41.05 |  3:51.19 |    151580    |   168923
        9  | 37:32.24 |  2:47.73 |    168924    |   181521
       10  | 40:20.22 |  4:18.20 |    181522    |   200891
       11  | 44:38.42 |  3:41.41 |    200892    |   217507
       12  | 48:20.08 |  3:47.36 |    217508    |   234568
       13  | 52:07.44 |  5:16.46 |    234569    |   258314
       14  | 57:24.15 |  4:25.53 |    258315    |   278242
       15  | 61:49.68 |  3:26.36 |    278243    |   293728
       16  | 65:16.29 |  5:36.21 |    293729    |   318949
       17  | 70:52.50 |  3:36.52 |    318950    |   335201
       18  | 74:29.27 |  3:38.46 |    335202    |   351597
Range status and errors
Selected range
     Filename D:\rip.flacmusic.ru\Various - Back To The 90's (CD1).wav
     Peak level 99.9 %
     Extraction speed 0.3 X
     Range quality 100.0 %
     Test CRC 4288F84B
     Copy CRC 4288F84B
     Copy OK
No errors occurred
AccurateRip summary
Track  1  not present in database
Track  2  not present in database
Track  3  not present in database
Track  4  not present in database
Track  5  not present in database
Track  6  not present in database
Track  7  not present in database
Track  8  not present in database
Track  9  not present in database
Track 10  not present in database
Track 11  not present in database
Track 12  not present in database
Track 13  not present in database
Track 14  not present in database
Track 15  not present in database
Track 16  not present in database
Track 17  not present in database
Track 18  not present in database
None of the tracks are present in the AccurateRip database
End of status report
==== Log checksum EF0E94B3C2CC9BD26C1EE39FE4676A3D7A3027DE001400A4043F1BE6E515FD0B ====

Отчёт auCDtect Task Manager&#58;

-----------------------
DON'T MODIFY THIS FILE
-----------------------
PERFORMER: auCDtect Task Manager, ver. 1.6.0 RC1 build 1.6.0.1
Copyright (c) 2008-2010 y-soft. All rights reserved
http://y-soft.org
ANALYZER: auCDtect: CD records authenticity detector, version 0.8.2
Copyright (c) 2004 Oleg Berngardt. All rights reserved.
Copyright (c) 2004 Alexander Djourik. All rights reserved.
FILE: Various - Back To The 90's (CD1).flac
  Size: 532598446 Hash: FD721B7E3FA001924C576D1929BC097F Accuracy: -m0
  Conclusion: CDDA 100%
  Signature: 212E1A07624DEACC2F21BF3380ABC1344E3283E6

Содержание CUE&#58;

REM GENRE Pop
REM DATE 2009
REM DISCID F3124F12
REM COMMENT "ExactAudioCopy v1.0b1"
PERFORMER "Various"
TITLE "Back To The 90's (CD1)"
FILE "Various - Back To The 90's (CD1).flac" WAVE
  TRACK 01 AUDIO
    TITLE "Angels"
    PERFORMER "Robbie Williams"
    INDEX 01 00:00:00
  TRACK 02 AUDIO
    TITLE "Chocolate Cake"
    PERFORMER "Crowded House"
    INDEX 01 04:23:45
  TRACK 03 AUDIO
    TITLE "N'Oubliez Jamais"
    PERFORMER "Joe Cocker"
    INDEX 01 08:19:42
  TRACK 04 AUDIO
    TITLE "Candy"
    PERFORMER "Iggy Pop"
    INDEX 01 13:07:50
  TRACK 05 AUDIO
    TITLE "It's the End Of the World As We Know It (And I Feel Fine)"
    PERFORMER "R.E.M."
    INDEX 01 17:19:20
  TRACK 06 AUDIO
    TITLE "Innuendo"
    PERFORMER "Queen"
    INDEX 01 21:21:35
  TRACK 07 AUDIO
    TITLE "Ordinary World"
    PERFORMER "Duran Duran"
    INDEX 01 28:06:01
  TRACK 08 AUDIO
    TITLE "Get Down"
    PERFORMER "The Backstreet Boys"
    INDEX 01 33:41:05
  TRACK 09 AUDIO
    TITLE "Geef Het Op"
    PERFORMER "Clouseau"
    INDEX 01 37:32:24
  TRACK 10 AUDIO
    TITLE "In Private"
    PERFORMER "Dusty Springfield"
    INDEX 01 40:20:22
  TRACK 11 AUDIO
    TITLE "When the Heartache is Over"
    PERFORMER "Tina Turner"
    INDEX 01 44:38:42
  TRACK 12 AUDIO
    TITLE "Tell Me What It Takes"
    PERFORMER "Soulsister"
    INDEX 01 48:20:08
  TRACK 13 AUDIO
    TITLE "Le Monde Tourne Mal"
    PERFORMER "Axelle Red"
    INDEX 00 52:06:34
    INDEX 01 52:07:44
  TRACK 14 AUDIO
    TITLE "Woman"
    PERFORMER "Neneh Cherry"
    INDEX 01 57:24:15
  TRACK 15 AUDIO
    TITLE "(I Can't Help) Falling In Love With You"
    PERFORMER "UB40"
    INDEX 01 61:49:68
  TRACK 16 AUDIO
    TITLE "A Dream's A Dream"
    PERFORMER "Soul II Soul"
    INDEX 01 65:16:29
  TRACK 17 AUDIO
    TITLE "I Wanna Be the Only One"
    PERFORMER "Eternal feat. Bebe Winans"
    INDEX 01 70:52:50
  TRACK 18 AUDIO
    TITLE "Mambo N°5 (A Little Bit Of...)"
    PERFORMER "Lou Bega"
    INDEX 01 74:29:27
CD2
Пpoдолжительность: 01:13:37
-Тpeк лист:
01. MC Hammer - U Can't Touch This :: 04:14
02. Vanilla Ice - Ice Ice Baby :: 04:30
03. Shampoo - Trouble :: 03:00
04. Spice Girls - Wannabe :: 02:52
05. US3 feat. Rahsaan and Gerard Presencer - Cantaloop (Flip Fantasia) :: 03:41
06. The Source feat. Candi Staton - You Got the Love :: 03:31
07. Pet Shop Boys - Go West :: 05:00
08. Milk Inc. - In My Eyes :: 03:30
09. BBE - Seven Days and One Week :: 04:30
10. DHS - House Of God :: 03:07
11. Praga Khan - Breakfast in Vegas :: 03:44
12. Paul Johnson - Get Get Down :: 03:09
13. Cece Peniston - Finally :: 03:43
14. Kim Appleby - Don't Worry :: 03:28
15. Rob De Nijs - Banger Hart :: 04:21
16. Sydney Youngblood - Sit and Wait :: 03:57
17. Atomic Kitten - Right Now :: 03:28
18. Tasmin Archer - Sleeping Satellite :: 04:39
19. Sinead O'Connor - Nothing Compares 2 U :: 05:05
:: 08:53-

Отчёт EAC&#58;

Exact Audio Copy V1.0 beta 1 from 15. November 2010
EAC extraction logfile from 27. October 2012, 11:17
Various / Back To The 90's (CD2)
Used drive  : PIONEER DVD-RW  DVR-110D   Adapter: 2  ID: 2
Read mode               : Secure
Utilize accurate stream : Yes
Defeat audio cache      : Yes
Make use of C2 pointers : No
Read offset correction                      : 48
Overread into Lead-In and Lead-Out          : No
Fill up missing offset samples with silence : Yes
Delete leading and trailing silent blocks   : No
Null samples used in CRC calculations       : Yes
Used interface                              : Native Win32 interface for Win NT & 2000
Used output format              : User Defined Encoder
Selected bitrate                : 768 kBit/s
Quality                         : High
Add ID3 tag                     : No
Command line compressor         : C:\Program Files\Exact Audio Copy\FLAC\FLAC.EXE
Additional command line options : -6 -V -T "ARTIST=%a" -T "TITLE=%t" -T "ALBUM=%g" -T "DATE=%y" -T "TRACKNUMBER=%n" -T "GENRE=%m" -T "COMMENT=%e" %j--picture="%i"%j %s -o %d
TOC of the extracted CD
     Track |   Start  |  Length  | Start sector | End sector
    ---------------------------------------------------------
        1  |  0:00.00 |  4:14.59 |         0    |    19108
        2  |  4:14.59 |  4:30.06 |     19109    |    39364
        3  |  8:44.65 |  3:00.09 |     39365    |    52873
        4  | 11:44.74 |  2:52.16 |     52874    |    65789
        5  | 14:37.15 |  3:41.25 |     65790    |    82389
        6  | 18:18.40 |  3:31.63 |     82390    |    98277
        7  | 21:50.28 |  5:00.29 |     98278    |   120806
        8  | 26:50.57 |  3:30.65 |    120807    |   136621
        9  | 30:21.47 |  4:30.05 |    136622    |   156876
       10  | 34:51.52 |  3:07.07 |    156877    |   170908
       11  | 37:58.59 |  3:44.01 |    170909    |   187709
       12  | 41:42.60 |  3:09.66 |    187710    |   201950
       13  | 44:52.51 |  3:43.20 |    201951    |   218695
       14  | 48:35.71 |  3:28.69 |    218696    |   234364
       15  | 52:04.65 |  4:21.61 |    234365    |   254000
       16  | 56:26.51 |  3:57.17 |    254001    |   271792
       17  | 60:23.68 |  3:28.49 |    271793    |   287441
       18  | 63:52.42 |  4:39.64 |    287442    |   308430
       19  | 68:32.31 |  5:05.39 |    308431    |   331344
Range status and errors
Selected range
     Filename D:\rip.flacmusic.ru\Various - Back To The 90's (CD2).wav
     Peak level 99.9 %
     Extraction speed 0.5 X
     Range quality 100.0 %
     Test CRC A67D4E84
     Copy CRC A67D4E84
     Copy OK
No errors occurred
AccurateRip summary
Track  1  not present in database
Track  2  not present in database
Track  3  not present in database
Track  4  not present in database
Track  5  not present in database
Track  6  not present in database
Track  7  not present in database
Track  8  not present in database
Track  9  not present in database
Track 10  not present in database
Track 11  not present in database
Track 12  not present in database
Track 13  not present in database
Track 14  not present in database
Track 15  not present in database
Track 16  not present in database
Track 17  not present in database
Track 18  not present in database
Track 19  not present in database
None of the tracks are present in the AccurateRip database
End of status report
==== Log checksum 93001149DC22F8E5FDDDFC3A44AB52563BBB23425E14947B893DAACBA69FA8C9 ====

Отчёт auCDtect Task Manager&#58;

-----------------------
DON'T MODIFY THIS FILE
-----------------------
PERFORMER: auCDtect Task Manager, ver. 1.6.0 RC1 build 1.6.0.1
Copyright (c) 2008-2010 y-soft. All rights reserved
http://y-soft.org
ANALYZER: auCDtect: CD records authenticity detector, version 0.8.2
Copyright (c) 2004 Oleg Berngardt. All rights reserved.
Copyright (c) 2004 Alexander Djourik. All rights reserved.
FILE: Various - Back To The 90's (CD2).flac
  Size: 500122393 Hash: 6317C145CC81F3E3FADEBDDF87A97BC4 Accuracy: -m0
  Conclusion: CDDA 100%
  Signature: 64FB426CA932214F700854E3D3806829539AC090

Содержание CUE&#58;

REM GENRE Pop
REM DATE 2009
REM DISCID FD114113
REM COMMENT "ExactAudioCopy v1.0b1"
PERFORMER "Various"
TITLE "Back To The 90's (CD2)"
FILE "Various - Back To The 90's (CD2).flac" WAVE
  TRACK 01 AUDIO
    TITLE "U Can't Touch This"
    PERFORMER "MC Hammer"
    INDEX 01 00:00:00
  TRACK 02 AUDIO
    TITLE "Ice Ice Baby"
    PERFORMER "Vanilla Ice"
    INDEX 01 04:14:59
  TRACK 03 AUDIO
    TITLE "Trouble"
    PERFORMER "Shampoo"
    INDEX 00 08:43:63
    INDEX 01 08:44:65
  TRACK 04 AUDIO
    TITLE "Wannabe"
    PERFORMER "Spice Girls"
    INDEX 01 11:44:74
  TRACK 05 AUDIO
    TITLE "Cantaloop (Flip Fantasia)"
    PERFORMER "US3 feat. Rahsaan and Gerard Presencer"
    INDEX 01 14:37:15
  TRACK 06 AUDIO
    TITLE "You Got the Love"
    PERFORMER "The Source feat. Candi Staton"
    INDEX 01 18:18:40
  TRACK 07 AUDIO
    TITLE "Go West"
    PERFORMER "Pet Shop Boys"
    INDEX 01 21:50:28
  TRACK 08 AUDIO
    TITLE "In My Eyes"
    PERFORMER "Milk Inc."
    INDEX 01 26:50:57
  TRACK 09 AUDIO
    TITLE "Seven Days and One Week"
    PERFORMER "BBE"
    INDEX 00 30:20:39
    INDEX 01 30:21:47
  TRACK 10 AUDIO
    TITLE "House Of God"
    PERFORMER "DHS"
    INDEX 01 34:51:52
  TRACK 11 AUDIO
    TITLE "Breakfast in Vegas"
    PERFORMER "Praga Khan"
    INDEX 01 37:58:59
  TRACK 12 AUDIO
    TITLE "Get Get Down"
    PERFORMER "Paul Johnson"
    INDEX 01 41:42:60
  TRACK 13 AUDIO
    TITLE "Finally"
    PERFORMER "Cece Peniston"
    INDEX 01 44:52:51
  TRACK 14 AUDIO
    TITLE "Don't Worry"
    PERFORMER "Kim Appleby"
    INDEX 01 48:35:71
  TRACK 15 AUDIO
    TITLE "Banger Hart"
    PERFORMER "Rob De Nijs"
    INDEX 01 52:04:65
  TRACK 16 AUDIO
    TITLE "Sit and Wait"
    PERFORMER "Sydney Youngblood"
    INDEX 01 56:26:51
  TRACK 17 AUDIO
    TITLE "Right Now"
    PERFORMER "Atomic Kitten"
    INDEX 01 60:23:68
  TRACK 18 AUDIO
    TITLE "Sleeping Satellite"
    PERFORMER "Tasmin Archer"
    INDEX 01 63:52:42
  TRACK 19 AUDIO
    TITLE "Nothing Compares 2 U"
    PERFORMER "Sinead O'Connor"
    INDEX 01 68:32:31
CD3
Пpoдолжительность: 01:12:30
-Тpeк лист:
01. Underworld - Born Slippy :: 03:43
02. The Chemical Brothers - Hey Boy, Hey Girl :: 04:48
03. PF Project feat. Ewan McGregor - Choose Life :: 03:50
04. Mr.Oizo - Flat Beat :: 03:55
05. The Prodigy - No Good (Start the Dance) :: 03:57
06. Moby - Go :: 03:59
07. Depeche Mode - Enjoy the Silence :: 04:29
08. Basement Jaxx - Red Alert :: 04:18
09. Kenny Dope presents The Bucketheads - The Bomb (These Sounds Fall Into My Mind) :: 03:24
10. Madison Avenue - Don't Call Me Baby :: 03:47
11. Moloko - Sing It Back :: 04:37
12. Daft Punk - Da Funk :: 03:47
13. Apollo 440 - Ain't Talkin'bout Dub :: 03:55
14. Kosheen - Hide U :: 03:55
15. Bomfunk Mc's - Freestyler :: 04:05
16. Luniz - I got 5 on It :: 04:05
17. Arrested Development - People Everyday :: 03:28
18. White Town - Your Woman :: 04:17
-

Отчёт EAC&#58;

Exact Audio Copy V1.0 beta 1 from 15. November 2010
EAC extraction logfile from 27. October 2012, 12:14
Various / Back To The 90's (CD3)
Used drive  : PIONEER DVD-RW  DVR-110D   Adapter: 2  ID: 2
Read mode               : Secure
Utilize accurate stream : Yes
Defeat audio cache      : Yes
Make use of C2 pointers : No
Read offset correction                      : 48
Overread into Lead-In and Lead-Out          : No
Fill up missing offset samples with silence : Yes
Delete leading and trailing silent blocks   : No
Null samples used in CRC calculations       : Yes
Used interface                              : Native Win32 interface for Win NT & 2000
Used output format              : User Defined Encoder
Selected bitrate                : 768 kBit/s
Quality                         : High
Add ID3 tag                     : No
Command line compressor         : C:\Program Files\Exact Audio Copy\FLAC\FLAC.EXE
Additional command line options : -6 -V -T "ARTIST=%a" -T "TITLE=%t" -T "ALBUM=%g" -T "DATE=%y" -T "TRACKNUMBER=%n" -T "GENRE=%m" -T "COMMENT=%e" %j--picture="%i"%j %s -o %d
TOC of the extracted CD
     Track |   Start  |  Length  | Start sector | End sector
    ---------------------------------------------------------
        1  |  0:00.00 |  3:43.63 |         0    |    16787
        2  |  3:43.63 |  4:48.72 |     16788    |    38459
        3  |  8:32.60 |  3:50.05 |     38460    |    55714
        4  | 12:22.65 |  3:55.56 |     55715    |    73395
        5  | 16:18.46 |  3:57.68 |     73396    |    91238
        6  | 20:16.39 |  3:59.60 |     91239    |   109223
        7  | 24:16.24 |  4:29.69 |    109224    |   129467
        8  | 28:46.18 |  4:18.68 |    129468    |   148885
        9  | 33:05.11 |  3:24.08 |    148886    |   164193
       10  | 36:29.19 |  3:47.57 |    164194    |   181275
       11  | 40:17.01 |  4:37.15 |    181276    |   202065
       12  | 44:54.16 |  3:47.68 |    202066    |   219158
       13  | 48:42.09 |  3:55.17 |    219159    |   236800
       14  | 52:37.26 |  3:55.66 |    236801    |   254491
       15  | 56:33.17 |  4:05.64 |    254492    |   272930
       16  | 60:39.06 |  4:05.58 |    272931    |   291363
       17  | 64:44.64 |  3:28.38 |    291364    |   307001
       18  | 68:13.27 |  4:17.10 |    307002    |   326286
Range status and errors
Selected range
     Filename D:\rip.flacmusic.ru\Various - Back To The 90's (CD3).wav
     Peak level 99.9 %
     Extraction speed 0.4 X
     Range quality 100.0 %
     Test CRC 50263C00
     Copy CRC 50263C00
     Copy OK
No errors occurred
AccurateRip summary
Track  1  not present in database
Track  2  not present in database
Track  3  not present in database
Track  4  not present in database
Track  5  not present in database
Track  6  not present in database
Track  7  not present in database
Track  8  not present in database
Track  9  not present in database
Track 10  not present in database
Track 11  not present in database
Track 12  not present in database
Track 13  not present in database
Track 14  not present in database
Track 15  not present in database
Track 16  not present in database
Track 17  not present in database
Track 18  not present in database
None of the tracks are present in the AccurateRip database
End of status report
==== Log checksum CD24BA474F0D48CAD859A3EFF67C060BEECD3CB834E54C26254178ECCF9FCAB7 ====

Отчёт auCDtect Task Manager&#58;

-----------------------
DON'T MODIFY THIS FILE
-----------------------
PERFORMER: auCDtect Task Manager, ver. 1.6.0 RC1 build 1.6.0.1
Copyright (c) 2008-2010 y-soft. All rights reserved
http://y-soft.org
ANALYZER: auCDtect: CD records authenticity detector, version 0.8.2
Copyright (c) 2004 Oleg Berngardt. All rights reserved.
Copyright (c) 2004 Alexander Djourik. All rights reserved.
FILE: Various - Back To The 90's (CD3).flac
  Size: 483018936 Hash: 5D397AC33FB694D9BFDF6B2BCFE184B4 Accuracy: -m0
  Conclusion: CDDA 100%
  Signature: 4D867D60C8B2C3B076B6AD116AB110F8B55FD3A0

Содержание CUE&#58;

REM GENRE Pop
REM DATE 2009
REM DISCID 2310FE12
REM COMMENT "ExactAudioCopy v1.0b1"
PERFORMER "Various"
TITLE "Back To The 90's (CD3)"
FILE "Various - Back To The 90's (CD3).flac" WAVE
  TRACK 01 AUDIO
    TITLE "Born Slippy"
    PERFORMER "Underworld"
    INDEX 01 00:00:00
  TRACK 02 AUDIO
    TITLE "Hey Boy, Hey Girl"
    PERFORMER "The Chemical Brothers"
    INDEX 01 03:43:63
  TRACK 03 AUDIO
    TITLE "Choose Life"
    PERFORMER "PF Project feat. Ewan McGregor"
    INDEX 01 08:32:60
  TRACK 04 AUDIO
    TITLE "Flat Beat"
    PERFORMER "Mr.Oizo"
    INDEX 01 12:22:65
  TRACK 05 AUDIO
    TITLE "No Good (Start the Dance)"
    PERFORMER "The Prodigy"
    INDEX 00 16:17:39
    INDEX 01 16:18:46
  TRACK 06 AUDIO
    TITLE "Go"
    PERFORMER "Moby"
    INDEX 00 20:15:35
    INDEX 01 20:16:39
  TRACK 07 AUDIO
    TITLE "Enjoy the Silence"
    PERFORMER "Depeche Mode"
    INDEX 01 24:16:24
  TRACK 08 AUDIO
    TITLE "Red Alert"
    PERFORMER "Basement Jaxx"
    INDEX 01 28:46:18
  TRACK 09 AUDIO
    TITLE "The Bomb (These Sounds Fall Into My Mind)"
    PERFORMER "Kenny Dope presents The Bucketheads"
    INDEX 00 33:03:68
    INDEX 01 33:05:11
  TRACK 10 AUDIO
    TITLE "Don't Call Me Baby"
    PERFORMER "Madison Avenue"
    INDEX 00 36:27:69
    INDEX 01 36:29:19
  TRACK 11 AUDIO
    TITLE "Sing It Back"
    PERFORMER "Moloko"
    INDEX 01 40:17:01
  TRACK 12 AUDIO
    TITLE "Da Funk"
    PERFORMER "Daft Punk"
    INDEX 01 44:54:16
  TRACK 13 AUDIO
    TITLE "Ain't Talkin'bout Dub"
    PERFORMER "Apollo 440"
    INDEX 01 48:42:09
  TRACK 14 AUDIO
    TITLE "Hide U"
    PERFORMER "Kosheen"
    INDEX 01 52:37:26
  TRACK 15 AUDIO
    TITLE "Freestyler"
    PERFORMER "Bomfunk Mc's"
    INDEX 00 56:32:07
    INDEX 01 56:33:17
  TRACK 16 AUDIO
    TITLE "I got 5 on It"
    PERFORMER "Luniz"
    INDEX 01 60:39:06
  TRACK 17 AUDIO
    TITLE "People Everyday"
    PERFORMER "Arrested Development"
    INDEX 01 64:44:64
  TRACK 18 AUDIO
    TITLE "Your Woman"
    PERFORMER "White Town"
    INDEX 00 68:12:16
    INDEX 01 68:13:27
CD4
Пpoдолжительность: 01:13:05
-Тpeк лист:
01. Radiohead - Karma Police :: 04:22
02. Nick Cave & The Bad Seeds and Kylie Minogue - Where the Wild Roses Grow :: 03:55
03. Soul Asylum - Runaway Train :: 04:22
04. Spin Doctors - Two Princes :: 04:15
05. Simple Minds - Let There Be Love :: 04:42
06. Gorki - Mia :: 05:30
07. De Mens - Irene :: 02:20
08. Anouk - Nobody's Wife :: 03:24
09. Meredith Brooks - Bitch :: 03:58
10. Joan Osborne - One Of Us :: 05:01
11. Roxette - It Must Have Been Love :: 04:16
12. Blind Melon - No Rain :: 03:36
13. Concrete Blonde - Joey :: 04:07
14. Divinyls - I Touch Myself :: 03:45
15. Something Happens - Parachute :: 04:25
16. De Kreuners - Ik Wil Je :: 03:24
17. Babylon Zoo - Spaceman :: 04:00
18. Chumbawamba - Tubthumping :: 03:32
-

Отчёт EAC&#58;

Exact Audio Copy V1.0 beta 1 from 15. November 2010
EAC extraction logfile from 27. October 2012, 12:55
Various / Back To The 90's (CD4)
Used drive  : PIONEER DVD-RW  DVR-110D   Adapter: 2  ID: 2
Read mode               : Secure
Utilize accurate stream : Yes
Defeat audio cache      : Yes
Make use of C2 pointers : No
Read offset correction                      : 48
Overread into Lead-In and Lead-Out          : No
Fill up missing offset samples with silence : Yes
Delete leading and trailing silent blocks   : No
Null samples used in CRC calculations       : Yes
Used interface                              : Native Win32 interface for Win NT & 2000
Used output format              : User Defined Encoder
Selected bitrate                : 768 kBit/s
Quality                         : High
Add ID3 tag                     : No
Command line compressor         : C:\Program Files\Exact Audio Copy\FLAC\FLAC.EXE
Additional command line options : -6 -V -T "ARTIST=%a" -T "TITLE=%t" -T "ALBUM=%g" -T "DATE=%y" -T "TRACKNUMBER=%n" -T "GENRE=%m" -T "COMMENT=%e" %j--picture="%i"%j %s -o %d
TOC of the extracted CD
     Track |   Start  |  Length  | Start sector | End sector
    ---------------------------------------------------------
        1  |  0:00.00 |  4:22.74 |         0    |    19723
        2  |  4:22.74 |  3:55.29 |     19724    |    37377
        3  |  8:18.28 |  4:22.72 |     37378    |    57099
        4  | 12:41.25 |  4:15.35 |     57100    |    76259
        5  | 16:56.60 |  4:42.66 |     76260    |    97475
        6  | 21:39.51 |  5:30.39 |     97476    |   122264
        7  | 27:10.15 |  2:20.74 |    122265    |   132838
        8  | 29:31.14 |  3:24.64 |    132839    |   148202
        9  | 32:56.03 |  3:58.17 |    148203    |   166069
       10  | 36:54.20 |  5:01.43 |    166070    |   188687
       11  | 41:55.63 |  4:16.53 |    188688    |   207940
       12  | 46:12.41 |  3:36.14 |    207941    |   224154
       13  | 49:48.55 |  4:07.03 |    224155    |   242682
       14  | 53:55.58 |  3:45.47 |    242683    |   259604
       15  | 57:41.30 |  4:25.71 |    259605    |   279550
       16  | 62:07.26 |  3:24.61 |    279551    |   294911
       17  | 65:32.12 |  4:00.39 |    294912    |   312950
       18  | 69:32.51 |  3:32.53 |    312951    |   328903
Range status and errors
Selected range
     Filename D:\rip.flacmusic.ru\Various - Back To The 90's (CD4).wav
     Peak level 100.0 %
     Extraction speed 0.3 X
     Range quality 100.0 %
     Test CRC ED480576
     Copy CRC ED480576
     Copy OK
No errors occurred
AccurateRip summary
Track  1  not present in database
Track  2  not present in database
Track  3  not present in database
Track  4  not present in database
Track  5  not present in database
Track  6  not present in database
Track  7  not present in database
Track  8  not present in database
Track  9  not present in database
Track 10  not present in database
Track 11  not present in database
Track 12  not present in database
Track 13  not present in database
Track 14  not present in database
Track 15  not present in database
Track 16  not present in database
Track 17  not present in database
Track 18  not present in database
None of the tracks are present in the AccurateRip database
End of status report
==== Log checksum 83A0A60D0A27834EFF005EB6EB825D146D31F5B733D620FED5FCEC65426E3A83 ====

Отчёт auCDtect Task Manager&#58;

-----------------------
DON'T MODIFY THIS FILE
-----------------------
PERFORMER: auCDtect Task Manager, ver. 1.6.0 RC1 build 1.6.0.1
Copyright (c) 2008-2010 y-soft. All rights reserved
http://y-soft.org
ANALYZER: auCDtect: CD records authenticity detector, version 0.8.2
Copyright (c) 2004 Oleg Berngardt. All rights reserved.
Copyright (c) 2004 Alexander Djourik. All rights reserved.
FILE: Various - Back To The 90's (CD4).flac
  Size: 497822291 Hash: D6F12F766C226FBF64BA3117487B081A Accuracy: -m0
  Conclusion: CDDA 100%
  Signature: B96DD870B3F107B54D5B44484239F6498F477B09

Содержание CUE&#58;

REM GENRE Pop
REM DATE 2009
REM DISCID 03112112
REM COMMENT "ExactAudioCopy v1.0b1"
PERFORMER "Various"
TITLE "Back To The 90's (CD4)"
FILE "Various - Back To The 90's (CD4).flac" WAVE
  TRACK 01 AUDIO
    TITLE "Karma Police"
    PERFORMER "Radiohead"
    INDEX 01 00:00:00
  TRACK 02 AUDIO
    TITLE "Where the Wild Roses Grow"
    PERFORMER "Nick Cave & The Bad Seeds and Kylie Minogue"
    INDEX 00 04:21:71
    INDEX 01 04:22:74
  TRACK 03 AUDIO
    TITLE "Runaway Train"
    PERFORMER "Soul Asylum"
    INDEX 01 08:18:28
  TRACK 04 AUDIO
    TITLE "Two Princes"
    PERFORMER "Spin Doctors"
    INDEX 01 12:41:25
  TRACK 05 AUDIO
    TITLE "Let There Be Love"
    PERFORMER "Simple Minds"
    INDEX 01 16:56:60
  TRACK 06 AUDIO
    TITLE "Mia"
    PERFORMER "Gorki"
    INDEX 01 21:39:51
  TRACK 07 AUDIO
    TITLE "Irene"
    PERFORMER "De Mens"
    INDEX 01 27:10:15
  TRACK 08 AUDIO
    TITLE "Nobody's Wife"
    PERFORMER "Anouk"
    INDEX 01 29:31:14
  TRACK 09 AUDIO
    TITLE "Bitch"
    PERFORMER "Meredith Brooks"
    INDEX 01 32:56:03
  TRACK 10 AUDIO
    TITLE "One Of Us"
    PERFORMER "Joan Osborne"
    INDEX 01 36:54:20
  TRACK 11 AUDIO
    TITLE "It Must Have Been Love"
    PERFORMER "Roxette"
    INDEX 01 41:55:63
  TRACK 12 AUDIO
    TITLE "No Rain"
    PERFORMER "Blind Melon"
    INDEX 01 46:12:41
  TRACK 13 AUDIO
    TITLE "Joey"
    PERFORMER "Concrete Blonde"
    INDEX 01 49:48:55
  TRACK 14 AUDIO
    TITLE "I Touch Myself"
    PERFORMER "Divinyls"
    INDEX 01 53:55:58
  TRACK 15 AUDIO
    TITLE "Parachute"
    PERFORMER "Something Happens"
    INDEX 01 57:41:30
  TRACK 16 AUDIO
    TITLE "Ik Wil Je"
    PERFORMER "De Kreuners"
    INDEX 01 62:07:26
  TRACK 17 AUDIO
    TITLE "Spaceman"
    PERFORMER "Babylon Zoo"
    INDEX 01 65:32:12
  TRACK 18 AUDIO
    TITLE "Tubthumping"
    PERFORMER "Chumbawamba"
    INDEX 01 69:32:51
CD5
Пpoдолжительность: 01:12:45
-Тpeк лист:
01. Snap - Rhythm Is A Dancer :: 03:41
02. Scatman John - Scatman (Ski-Ba-Bop-Ba-Dop-Bop) :: 03:31
03. 2 Brothers On the 4th Floor - Never Alone :: 04:09
04. Me & My - Dub I Dub :: 03:21
05. Delerium - Silence :: 04:18
06. Bentley Rhythm Ace - Bentley's Gonna Sort You Out :: 03:43
07. EMF - Unbelievable :: 03:29
08. Mano Negra - King Kong Five :: 01:56
09. Bran Van 3000 - Drinking in L.A :: 03:41
10. Enigma - Sadness Part 1 :: 04:13
11. Shaggy - Boombastic :: 04:07
12. T-Spoon - Sex On the Beach :: 03:44
13. Leopold 3 - Zomernacht :: 03:17
14. Bart Kaell - Zeil Je Voor Het Eerst :: 04:10
15. Get Ready - Diep :: 03:37
16. Carrilio - Samba De Janeiro :: 02:48
17. The Radios - Swimming in the Pool :: 02:50
18. Raymond Van Het Groenewoud - Liefde Voor Muziek :: 03:33
19. Arno - Les Filles Du Bord De Mer :: 04:57
20. Monty Python - Always Look On the Bright Side Of Life :: 03:31
-

Отчёт EAC&#58;

Exact Audio Copy V1.0 beta 1 from 15. November 2010
EAC extraction logfile from 27. October 2012, 13:12
Various / Back To The 90's (CD5)
Used drive  : PIONEER DVD-RW  DVR-110D   Adapter: 2  ID: 2
Read mode               : Secure
Utilize accurate stream : Yes
Defeat audio cache      : Yes
Make use of C2 pointers : No
Read offset correction                      : 48
Overread into Lead-In and Lead-Out          : No
Fill up missing offset samples with silence : Yes
Delete leading and trailing silent blocks   : No
Null samples used in CRC calculations       : Yes
Used interface                              : Native Win32 interface for Win NT & 2000
Used output format              : User Defined Encoder
Selected bitrate                : 768 kBit/s
Quality                         : High
Add ID3 tag                     : No
Command line compressor         : C:\Program Files\Exact Audio Copy\FLAC\FLAC.EXE
Additional command line options : -6 -V -T "ARTIST=%a" -T "TITLE=%t" -T "ALBUM=%g" -T "DATE=%y" -T "TRACKNUMBER=%n" -T "GENRE=%m" -T "COMMENT=%e" %j--picture="%i"%j %s -o %d
TOC of the extracted CD
     Track |   Start  |  Length  | Start sector | End sector
    ---------------------------------------------------------
        1  |  0:00.00 |  3:41.28 |         0    |    16602
        2  |  3:41.28 |  3:31.26 |     16603    |    32453
        3  |  7:12.54 |  4:09.37 |     32454    |    51165
        4  | 11:22.16 |  3:21.23 |     51166    |    66263
        5  | 14:43.39 |  4:18.47 |     66264    |    85660
        6  | 19:02.11 |  3:43.64 |     85661    |   102449
        7  | 22:46.00 |  3:29.31 |    102450    |   118155
        8  | 26:15.31 |  1:56.47 |    118156    |   126902
        9  | 28:12.03 |  3:41.17 |    126903    |   143494
       10  | 31:53.20 |  4:13.38 |    143495    |   162507
       11  | 36:06.58 |  4:07.50 |    162508    |   181082
       12  | 40:14.33 |  3:44.05 |    181083    |   197887
       13  | 43:58.38 |  3:17.02 |    197888    |   212664
       14  | 47:15.40 |  4:10.17 |    212665    |   231431
       15  | 51:25.57 |  3:37.67 |    231432    |   247773
       16  | 55:03.49 |  2:48.12 |    247774    |   260385
       17  | 57:51.61 |  2:50.01 |    260386    |   273136
       18  | 60:41.62 |  3:33.67 |    273137    |   289178
       19  | 64:15.54 |  4:57.71 |    289179    |   311524
       20  | 69:13.50 |  3:31.32 |    311525    |   327381
Range status and errors
Selected range
     Filename D:\rip.flacmusic.ru\Various - Back To The 90's (CD5).wav
     Peak level 99.9 %
     Extraction speed 0.3 X
     Range quality 100.0 %
     Copy CRC 44E2A8B6
     Copy OK
No errors occurred
AccurateRip summary
Track  1  not present in database
Track  2  not present in database
Track  3  not present in database
Track  4  not present in database
Track  5  not present in database
Track  6  not present in database
Track  7  not present in database
Track  8  not present in database
Track  9  not present in database
Track 10  not present in database
Track 11  not present in database
Track 12  not present in database
Track 13  not present in database
Track 14  not present in database
Track 15  not present in database
Track 16  not present in database
Track 17  not present in database
Track 18  not present in database
Track 19  not present in database
Track 20  not present in database
None of the tracks are present in the AccurateRip database
End of status report
==== Log checksum 634802AF66816ACC6D2CB165FEDB807C490AADD8EEB00A177850C42071D37292 ====

Отчёт auCDtect Task Manager&#58;

-----------------------
DON'T MODIFY THIS FILE
-----------------------
PERFORMER: auCDtect Task Manager, ver. 1.6.0 RC1 build 1.6.0.1
Copyright (c) 2008-2010 y-soft. All rights reserved
http://y-soft.org
ANALYZER: auCDtect: CD records authenticity detector, version 0.8.2
Copyright (c) 2004 Oleg Berngardt. All rights reserved.
Copyright (c) 2004 Alexander Djourik. All rights reserved.
FILE: Various - Back To The 90's (CD5).flac
  Size: 506735145 Hash: 712A645402763BF7ECAAA5894400AB91 Accuracy: -m0
  Conclusion: CDDA 100%
  Signature: E6EBDDE7176D24C2DEAC5B7F9D568CA615458285

Содержание CUE&#58;

REM GENRE Pop
REM DATE 2009
REM DISCID 32110D14
REM COMMENT "ExactAudioCopy v1.0b1"
PERFORMER "Various"
TITLE "Back To The 90's (CD5)"
FILE "Various - Back To The 90's (CD5).flac" WAVE
  TRACK 01 AUDIO
    TITLE "Rhythm Is A Dancer"
    PERFORMER "Snap"
    INDEX 01 00:00:00
  TRACK 02 AUDIO
    TITLE "Scatman (Ski-Ba-Bop-Ba-Dop-Bop)"
    PERFORMER "Scatman John"
    INDEX 01 03:41:28
  TRACK 03 AUDIO
    TITLE "Never Alone"
    PERFORMER "2 Brothers On the 4th Floor"
    INDEX 01 07:12:54
  TRACK 04 AUDIO
    TITLE "Dub I Dub"
    PERFORMER "Me & My"
    INDEX 01 11:22:16
  TRACK 05 AUDIO
    TITLE "Silence"
    PERFORMER "Delerium"
    INDEX 01 14:43:39
  TRACK 06 AUDIO
    TITLE "Bentley's Gonna Sort You Out"
    PERFORMER "Bentley Rhythm Ace"
    INDEX 01 19:02:11
  TRACK 07 AUDIO
    TITLE "Unbelievable"
    PERFORMER "EMF"
    INDEX 01 22:46:00
  TRACK 08 AUDIO
    TITLE "King Kong Five"
    PERFORMER "Mano Negra"
    INDEX 01 26:15:31
  TRACK 09 AUDIO
    TITLE "Drinking in L.A"
    PERFORMER "Bran Van 3000"
    INDEX 01 28:12:03
  TRACK 10 AUDIO
    TITLE "Sadness Part 1"
    PERFORMER "Enigma"
    INDEX 00 31:51:65
    INDEX 01 31:53:20
  TRACK 11 AUDIO
    TITLE "Boombastic"
    PERFORMER "Shaggy"
    INDEX 01 36:06:58
  TRACK 12 AUDIO
    TITLE "Sex On the Beach"
    PERFORMER "T-Spoon"
    INDEX 01 40:14:33
  TRACK 13 AUDIO
    TITLE "Zomernacht"
    PERFORMER "Leopold 3"
    INDEX 01 43:58:38
  TRACK 14 AUDIO
    TITLE "Zeil Je Voor Het Eerst"
    PERFORMER "Bart Kaell"
    INDEX 01 47:15:40
  TRACK 15 AUDIO
    TITLE "Diep"
    PERFORMER "Get Ready"
    INDEX 01 51:25:57
  TRACK 16 AUDIO
    TITLE "Samba De Janeiro"
    PERFORMER "Carrilio"
    INDEX 01 55:03:49
  TRACK 17 AUDIO
    TITLE "Swimming in the Pool"
    PERFORMER "The Radios"
    INDEX 01 57:51:61
  TRACK 18 AUDIO
    TITLE "Liefde Voor Muziek"
    PERFORMER "Raymond Van Het Groenewoud"
    INDEX 01 60:41:62
  TRACK 19 AUDIO
    TITLE "Les Filles Du Bord De Mer"
    PERFORMER "Arno"
    INDEX 01 64:15:54
  TRACK 20 AUDIO
    TITLE "Always Look On the Bright Side Of Life"
    PERFORMER "Monty Python"
    INDEX 01 69:13:50
-
Яндекс.Метрика
Рейтинг@Mail.ru