[ Сегодня на трекере фрилич! Идет свободное скачивание без начисления Download ]

VA - Queen Dance Traxx vol.1 (1996) [APE|Lossless]<Eurodance>

 

Создавать темы 17-Дек-2014 11:54

-VA - Queen Dance Traxx vol.1 (1996)- Год: 1996
Жанр: Eurodance
Продолжительность: 01:09:01
Кодек: APE
Битрейт: Lossless
Треклист:
01. Captain Jack - Another One Bites The Dust
02. Scatman John - The Invisible Man
03. Mr President - A Kind Of Magic
04. Ex - It - I Want It All
05. Culture Beat - Under Pressure
06. Worlds Apart - I Was Born To Love You
07. Masterboy - I Want To Break Free
08. Blumchen & Blossom - Bicycle Race
09. Magic Affair - Bohemian Rhapsody
10. E - Rotic - Who Wants To Live Forever
11. U96 - Flash`s Theme
12. Queen Dance Traxx vs DJ Bobo - Radio Ga Ga
13. Voice - Scandal
14. Interactive - We Will Rock You
15. Music Instructor - Friends Will Be Friends
16. Acts United - We Are The Champions

Отчёт ЕАС&#58;

Отчёт EAC об извлечении, выполненном 14. мая 2008, 22:37
Various / Queen Dance Traxx I
Дисковод: PLEXTOR DVDR   PX-800A   Adapter: 0  ID: 0
Режим чтения                 : Достоверность
Использование точного потока : Да
Отключение кэша аудио        : Да
Использование указателей C2  : Нет
Коррекция смещения при чтении                     : 48
Способность читать области Lead-in и Lead-out     : Нет
Заполнение пропущенных сэмплов тишиной            : Да
Удаление блоков с тишиной в начале и конце        : Нет
При вычислениях CRC использовались нулевые сэмплы : Да
Интерфейс                                         : Установленный внешний ASPI-интерфейс
Выходной формат : Внутренние WAV-операции
Формат сэмплов  : 44.100 Гц; 16 бит; стерео
TOC извлечённого CD
     Трек |   Старт  | Длительность | Начальный сектор | Конечный сектор
    ---------------------------------------------------------------------
       1  |  0:00.00 |    3:48.65   |           0      |      17164
       2  |  3:48.65 |    3:26.37   |       17165      |      32651
       3  |  7:15.27 |    3:45.20   |       32652      |      49546
       4  | 11:00.47 |    3:53.03   |       49547      |      67024
       5  | 14:53.50 |    4:21.72   |       67025      |      86671
       6  | 19:15.47 |    3:49.58   |       86672      |     103904
       7  | 23:05.30 |    3:26.07   |      103905      |     119361
       8  | 26:31.37 |    4:40.25   |      119362      |     140386
       9  | 31:11.62 |    6:34.45   |      140387      |     169981
      10  | 37:46.32 |    6:23.10   |      169982      |     198716
      11  | 44:09.42 |    5:37.63   |      198717      |     224054
      12  | 49:47.30 |    3:47.62   |      224055      |     241141
      13  | 53:35.17 |    3:46.10   |      241142      |     258101
      14  | 57:21.27 |    4:33.38   |      258102      |     278614
      15  | 61:54.65 |    3:51.20   |      278615      |     295959
      16  | 65:46.10 |    3:15.52   |      295960      |     310636
Характеристики диапазона извлечения и сообщения об ошибках
Выбранный диапазон
     Имя файла F:\Torrents\My\Various - Queen Dance Traxx I.wav
     Пиковый уровень 100.0 %
     Качество диапазона 99.7 %
     CRC копии 73A264EA
     Копирование завершено
Ошибок не произошло
Конец отчёта

Отчёт auCDtect Task Manager&#58;

-----------------------
DON'T MODIFY THIS FILE
-----------------------
PERFORMER: auCDtect Task Manager, ver. 1.6.0 RC1 build 1.6.0.1
Copyright (c) 2008-2010 y-soft. All rights reserved
http://y-soft.org
ANALYZER: auCDtect: CD records authenticity detector, version 0.8.2
Copyright (c) 2004 Oleg Berngardt. All rights reserved.
Copyright (c) 2004 Alexander Djourik. All rights reserved.
FILE: Various - Queen Dance Traxx I.ape
  Size: 502555580 Hash: B759167E77C7248F072EB49AEA3C3B9A Accuracy: -m0
  Conclusion: CDDA 100%
  Signature: EEC2AF463AFD355754BEFE96BDA106A8B161B21D
-
Яндекс.Метрика
Рейтинг@Mail.ru