Fly Project - 2005 - 2013 Selection (2013) [FLAC|Lossless]<Dance, Electronic>

 

Создавать темы 17-Дек-2014 11:54

-Fly Project - 2005 - 2013 Selection (2013)- Год: 2013
Жанр: Dance, Electronic
Лейбл: Roton, Gala Records. Made in RU
Каталог #: GLI0788
Продолжительность: 00:59:33-Кодек: FLAC
Тип рипа: tracks + .cue
Битрейт: Lossless-Треклист:
01. Back In My Life (Radio Edit) (3:19)
02. Musica (Radio Edit) (3:41)
03. Raisa (English Version) (3:23)
04. My Own World (3:30)
05. Cheyenne (English Version) (3:55)
06. Tasha (Radio Version) (3:34)
07. Push Up (4:02)
08. When You Cry (4:09)
09. People Around You (3:51)
10. K-Tinne (3:28)
11. Inlove Again (4:09)
12. Extazzy (6:02)
13. Rebirth (3:09)
14. Tasha (Radio V) (6:22)
15. Back In My Life (Dj Favorite & Mr. Romano Radio Edit) (2:58)-

Отчёт ЕАС&#58;

Exact Audio Copy V1.0 beta 3 from 29. August 2011
EAC extraction logfile from 30. September 2013, 20:46
Fly Project / 2005-2013 Selection
Used drive  : TSSTcorpCDDVDW TS-L633C   Adapter: 2  ID: 0
Read mode               : Secure
Utilize accurate stream : Yes
Defeat audio cache      : Yes
Make use of C2 pointers : No
Read offset correction                      : 6
Overread into Lead-In and Lead-Out          : No
Fill up missing offset samples with silence : Yes
Delete leading and trailing silent blocks   : No
Null samples used in CRC calculations       : Yes
Used interface                              : Native Win32 interface for Win NT & 2000
Gap handling                                : Appended to previous track
Used output format              : User Defined Encoder
Selected bitrate                : 128 kBit/s
Quality                         : High
Add ID3 tag                     : No
Command line compressor         : C:\Program Files (x86)\Exact Audio Copy\Flac\flac.exe
Additional command line options : -8 -V -T "ARTIST=%artist%" -T "TITLE=%title%" -T "ALBUM=%albumtitle%" -T "DATE=%year%" -T "TRACKNUMBER=%tracknr%" -T "GENRE=%genre%" -T "COMMENT=ripped by Andy aka yetiisyou" %source%
TOC of the extracted CD
     Track |   Start  |  Length  | Start sector | End sector
    ---------------------------------------------------------
        1  |  0:00.00 |  3:18.65 |         0    |    14914
        2  |  3:18.65 |  3:41.21 |     14915    |    31510
        3  |  7:00.11 |  3:23.00 |     31511    |    46735
        4  | 10:23.11 |  3:30.26 |     46736    |    62511
        5  | 13:53.37 |  3:55.13 |     62512    |    80149
        6  | 17:48.50 |  3:33.56 |     80150    |    96180
        7  | 21:22.31 |  4:02.17 |     96181    |   114347
        8  | 25:24.48 |  4:09.35 |    114348    |   133057
        9  | 29:34.08 |  3:51.07 |    133058    |   150389
       10  | 33:25.15 |  3:27.54 |    150390    |   165968
       11  | 36:52.69 |  4:08.70 |    165969    |   184638
       12  | 41:01.64 |  6:02.08 |    184639    |   211796
       13  | 47:03.72 |  3:08.64 |    211797    |   225960
       14  | 50:12.61 |  6:22.07 |    225961    |   254617
       15  | 56:34.68 |  2:58.24 |    254618    |   267991
Track  1
     Filename C:\01 Back In My Life (Radio Edit).wav
     Pre-gap length  0:00:02.00
     Peak level 88.0 %
     Extraction speed 2.1 X
     Track quality 99.9 %
     Test CRC 74EF0D58
     Copy CRC 74EF0D58
     Track not present in AccurateRip database
     Copy OK
Track  2
     Filename C:\02 Musica (Radio Edit).wav
     Pre-gap length  0:00:02.00
     Peak level 97.7 %
     Extraction speed 2.8 X
     Track quality 100.0 %
     Test CRC E3F5F017
     Copy CRC E3F5F017
     Track not present in AccurateRip database
     Copy OK
Track  3
     Filename C:\03 Raisa (English Version).wav
     Pre-gap length  0:00:02.00
     Peak level 98.8 %
     Extraction speed 3.0 X
     Track quality 100.0 %
     Test CRC E7E4E25A
     Copy CRC E7E4E25A
     Track not present in AccurateRip database
     Copy OK
Track  4
     Filename C:\04 My Own World.wav
     Pre-gap length  0:00:02.00
     Peak level 98.8 %
     Extraction speed 3.2 X
     Track quality 100.0 %
     Test CRC 5ED2D7BE
     Copy CRC 5ED2D7BE
     Track not present in AccurateRip database
     Copy OK
Track  5
     Filename C:\05 Cheyenne (English Version).wav
     Pre-gap length  0:00:02.00
     Peak level 98.8 %
     Extraction speed 3.4 X
     Track quality 100.0 %
     Test CRC D5CAFFD7
     Copy CRC D5CAFFD7
     Track not present in AccurateRip database
     Copy OK
Track  6
     Filename C:\06 Tasha (Radio Version).wav
     Pre-gap length  0:00:02.00
     Peak level 99.8 %
     Extraction speed 3.5 X
     Track quality 100.0 %
     Test CRC 47443D5E
     Copy CRC 47443D5E
     Track not present in AccurateRip database
     Copy OK
Track  7
     Filename C:\07 Push Up.wav
     Pre-gap length  0:00:02.00
     Peak level 99.0 %
     Extraction speed 3.8 X
     Track quality 100.0 %
     Test CRC 568A1183
     Copy CRC 568A1183
     Track not present in AccurateRip database
     Copy OK
Track  8
     Filename C:\08 When You Cry.wav
     Pre-gap length  0:00:02.00
     Peak level 98.8 %
     Extraction speed 4.0 X
     Track quality 100.0 %
     Test CRC 7A2DB631
     Copy CRC 7A2DB631
     Track not present in AccurateRip database
     Copy OK
Track  9
     Filename C:\09 People Around You.wav
     Pre-gap length  0:00:02.00
     Peak level 99.9 %
     Extraction speed 3.4 X
     Track quality 99.9 %
     Test CRC AB51AC64
     Copy CRC AB51AC64
     Track not present in AccurateRip database
     Copy OK
Track 10
     Filename C:\10 K-Tinne.wav
     Pre-gap length  0:00:02.00
     Peak level 99.2 %
     Extraction speed 4.1 X
     Track quality 100.0 %
     Test CRC 7971B12B
     Copy CRC 7971B12B
     Track not present in AccurateRip database
     Copy OK
Track 11
     Filename C:\11 Inlove Again.wav
     Pre-gap length  0:00:02.00
     Peak level 98.8 %
     Extraction speed 4.4 X
     Track quality 100.0 %
     Test CRC 6168E7B5
     Copy CRC 6168E7B5
     Track not present in AccurateRip database
     Copy OK
Track 12
     Filename C:\12 Extazzy.wav
     Pre-gap length  0:00:02.00
     Peak level 98.8 %
     Extraction speed 4.8 X
     Track quality 100.0 %
     Test CRC 4181F22B
     Copy CRC 4181F22B
     Track not present in AccurateRip database
     Copy OK
Track 13
     Filename C:\13 Rebirth.wav
     Pre-gap length  0:00:02.00
     Peak level 98.9 %
     Extraction speed 4.5 X
     Track quality 100.0 %
     Test CRC 103180DB
     Copy CRC 103180DB
     Track not present in AccurateRip database
     Copy OK
Track 14
     Filename C:\14 Tasha (Radio V).wav
     Pre-gap length  0:00:02.00
     Peak level 99.9 %
     Extraction speed 4.6 X
     Track quality 99.9 %
     Test CRC 7E1F5084
     Copy CRC 7E1F5084
     Track not present in AccurateRip database
     Copy OK
Track 15
     Filename C:\15 Back In My Life (Dj Favorite & Mr. Romano Radio Edit).wav
     Pre-gap length  0:00:02.00
     Peak level 88.0 %
     Extraction speed 3.8 X
     Track quality 99.9 %
     Test CRC 661974B3
     Copy CRC 661974B3
     Track not present in AccurateRip database
     Copy OK
None of the tracks are present in the AccurateRip database
No errors occurred
End of status report
---- CUETools DB Plugin V2.1.3
[CTDB TOCID: b76HJvOCZ9BANCEU78v3Z4n7cpU-] disk not present in database, Submit result: b76HJvOCZ9BANCEU78v3Z4n7cpU- has been uploaded
==== Log checksum 7C7DF29BBD188F73BDC3B8AA8F82256595009F95603661254E8DAC25BE54C150 ====

Отчёт auCDtect Task manager&#58;

-----------------------
DON'T MODIFY THIS FILE
-----------------------
PERFORMER: auCDtect Task Manager, ver. 1.6.0 RC1 build 1.6.0.1
Copyright (c) 2008-2010 y-soft. All rights reserved
http://y-soft.org
ANALYZER: auCDtect: CD records authenticity detector, version 0.8.2
Copyright (c) 2004 Oleg Berngardt. All rights reserved.
Copyright (c) 2004 Alexander Djourik. All rights reserved.
FILE: 07. Push Up.flac
  Size: 30736129 Hash: AE237238977A22F2F81D034FDEC3DAC4 Accuracy: -m0
  Conclusion: CDDA 100%
  Signature: 3564A5C78F477879C6D62CE3F9047E91022A8EE1
FILE: 06. Tasha (Radio Version).flac
  Size: 28928140 Hash: C0821CCE07CBEBB48DD42494F96C4CD3 Accuracy: -m0
  Conclusion: CDDA 100%
  Signature: 5893CA2D1DDA7EE332AC24D45AD6757FC29F77BC
FILE: 05. Cheyenne (English Version).flac
  Size: 30163980 Hash: E9E60D8BAF4F59DCD3F1490711D11EF1 Accuracy: -m0
  Conclusion: CDDA 100%
  Signature: 2AD2E78380F6E048F512419E9AC6FD011A66A4CA
FILE: 04. My Own World.flac
  Size: 24444286 Hash: D622E9EA3A8AA7B518DFC3D64A560FA7 Accuracy: -m0
  Conclusion: CDDA 100%
  Signature: 43B0BD9C634C30BB662AB22CC21E6308182C5E82
FILE: 03. Raisa (English Version).flac
  Size: 26144771 Hash: 49D32D34068434DF7B2A947579656F9C Accuracy: -m0
  Conclusion: CDDA 100%
  Signature: 0A3665FAA21DF2C86B53F5723B7B312202CD32CE
FILE: 02. Musica (Radio Edit).flac
  Size: 27380898 Hash: D118346F06B4412B0908C0C7BB07A31B Accuracy: -m0
  Conclusion: CDDA 100%
  Signature: AA8D66913BAC22DE0919FBA182D742A3FE57BED7
FILE: 01. Back In My Life (Radio Edit).flac
  Size: 21995947 Hash: C4C71E56817B9FDA16550DDE0DDFA1C8 Accuracy: -m0
  Conclusion: CDDA 100%
  Signature: D27850D1279BBCB4EE46289650730A805B5A785B
FILE: 15. Back In My Life (Dj Favorite & Mr. Romano Radio Edit).flac
  Size: 23814688 Hash: 818F332621DA1869B6604C0D4C406A54 Accuracy: -m0
  Conclusion: CDDA 99%
  Signature: 6E32E8894A115CE68D6958CB153C402AEF11C924
FILE: 14. Tasha (Radio V).flac
  Size: 47940402 Hash: 21E5FEC8A24CB53B9C964321169BB153 Accuracy: -m0
  Conclusion: CDDA 100%
  Signature: D2802366A86C3747F55FF5333F73754F9A1848BF
FILE: 13. Rebirth.flac
  Size: 22333117 Hash: 5B60D17ABFE8FF9AA3749D54F0109934 Accuracy: -m0
  Conclusion: CDDA 100%
  Signature: E69643B768F0D4AE419489554B851AB093F5125E
FILE: 12. Extazzy.flac
  Size: 39789612 Hash: 1576AA263B058E8DD65957640E265475 Accuracy: -m0
  Conclusion: CDDA 100%
  Signature: 0BBC9876082802FE740865BBE487A8EBCD5D4BF0
FILE: 11. Inlove Again.flac
  Size: 30649695 Hash: 59B8DF1284CCFF23D04DA212EB090CEB Accuracy: -m0
  Conclusion: CDDA 100%
  Signature: 4E5B0561D28134129FE22FE4089B349147A65B20
FILE: 10. K-Tinne.flac
  Size: 26213985 Hash: 9D5061921A711285FA0EE827E8B006FA Accuracy: -m0
  Conclusion: CDDA 99%
  Signature: BCDADA83EAF54E6119B945A578CE2F55B5889770
FILE: 09. People Around You.flac
  Size: 29490122 Hash: DE692FCD6D099FD4EEB142F9F1703C4A Accuracy: -m0
  Conclusion: CDDA 100%
  Signature: D368EC4970F79EAF54B9F7545982226414C3F874
FILE: 08. When You Cry.flac
  Size: 31573164 Hash: EA2957018BA8BA12A36493A054A3A584 Accuracy: -m0
  Conclusion: CDDA 100%
  Signature: A8AF31EC5DCB58D5202CED52421AE29BF614A3AA

Содержание индексной карты (.CUE&#41;

REM GENRE Dance
REM DATE 2013
REM DISCID B20DF50F
REM COMMENT "ExactAudioCopy v1.0b3"
PERFORMER "Fly Project"
TITLE "2005-2013 Selection"
FILE "01. Back In My Life (Radio Edit).flac" WAVE
  TRACK 01 AUDIO
    TITLE "Back In My Life (Radio Edit)"
    PERFORMER "Fly Project"
    INDEX 01 00:00:00
FILE "02. Musica (Radio Edit).flac" WAVE
  TRACK 02 AUDIO
    TITLE "Musica (Radio Edit)"
    PERFORMER "Fly Project"
    INDEX 01 00:00:00
FILE "03. Raisa (English Version).flac" WAVE
  TRACK 03 AUDIO
    TITLE "Raisa (English Version)"
    PERFORMER "Fly Project"
    INDEX 01 00:00:00
FILE "04. My Own World.flac" WAVE
  TRACK 04 AUDIO
    TITLE "My Own World"
    PERFORMER "Fly Project"
    INDEX 01 00:00:00
FILE "05. Cheyenne (English Version).flac" WAVE
  TRACK 05 AUDIO
    TITLE "Cheyenne (English Version)"
    PERFORMER "Fly Project"
    INDEX 01 00:00:00
FILE "06. Tasha (Radio Version).flac" WAVE
  TRACK 06 AUDIO
    TITLE "Tasha (Radio Version)"
    PERFORMER "Fly Project"
    INDEX 01 00:00:00
FILE "07. Push Up.flac" WAVE
  TRACK 07 AUDIO
    TITLE "Push Up"
    PERFORMER "Fly Project"
    INDEX 01 00:00:00
FILE "08. When You Cry.flac" WAVE
  TRACK 08 AUDIO
    TITLE "When You Cry"
    PERFORMER "Fly Project"
    INDEX 01 00:00:00
FILE "09. People Around You.flac" WAVE
  TRACK 09 AUDIO
    TITLE "People Around You"
    PERFORMER "Fly Project"
    INDEX 01 00:00:00
FILE "10. K-Tinne.flac" WAVE
  TRACK 10 AUDIO
    TITLE K-Tinne
    PERFORMER "Fly Project"
    INDEX 01 00:00:00
FILE "11. Inlove Again.flac" WAVE
  TRACK 11 AUDIO
    TITLE "Inlove Again"
    PERFORMER "Fly Project"
    INDEX 01 00:00:00
FILE "12. Extazzy.flac" WAVE
  TRACK 12 AUDIO
    TITLE Extazzy
    PERFORMER "Fly Project"
    INDEX 01 00:00:00
FILE "13. Rebirth.flac" WAVE
  TRACK 13 AUDIO
    TITLE Rebirth
    PERFORMER "Fly Project"
    INDEX 01 00:00:00
FILE "14. Tasha (Radio V).flac" WAVE
  TRACK 14 AUDIO
    TITLE "Tasha (Radio V)"
    PERFORMER "Fly Project"
    INDEX 01 00:00:00
FILE "15. Back In My Life (Dj Favorite & Mr. Romano Radio Edit).flac" WAVE
  TRACK 15 AUDIO
    TITLE "Back In My Life (Dj Favorite & Mr. Romano Radio Edit)"
    PERFORMER "Fly Project"
    INDEX 01 00:00:00

Сверка с АккуратРип

[CUETools log; Date: 07.10.2013 22:58:43; Version: 2.1.4]
[CTDB TOCID: b76HJvOCZ9BANCEU78v3Z4n7cpU-] found.
Track | CTDB Status
  1   | (1/1) Accurately ripped
  2   | (1/1) Accurately ripped
  3   | (1/1) Accurately ripped
  4   | (1/1) Accurately ripped
  5   | (1/1) Accurately ripped
  6   | (1/1) Accurately ripped
  7   | (1/1) Accurately ripped
  8   | (1/1) Accurately ripped
  9   | (1/1) Accurately ripped
10   | (1/1) Accurately ripped
11   | (1/1) Accurately ripped
12   | (1/1) Accurately ripped
13   | (1/1) Accurately ripped
14   | (1/1) Accurately ripped
15   | (1/1) Accurately ripped
[AccurateRip ID: 001f23c9-0165f6c5-b20df50f] disk not present in database.
Track Peak [ CRC32  ] [W/O NULL] [  LOG   ]
--   99,9 [5EAAAE87] [CA18FAEF]
01   88,0 [74EF0D58] [D66F74C6]   CRC32
02   97,7 [E3F5F017] [BC1935C2]   CRC32
03   98,8 [E7E4E25A] [23743FAF]   CRC32
04   98,8 [5ED2D7BE] [0ABF8188]   CRC32
05   98,8 [D5CAFFD7] [0D69F916]   CRC32
06   99,8 [47443D5E] [832972C4]   CRC32
07   99,0 [568A1183] [A4DE56F3]   CRC32
08   98,8 [7A2DB631] [2B477AFE]   CRC32
09   99,9 [AB51AC64] [4334DCBB]   CRC32
10   99,2 [7971B12B] [C9B813D6]   CRC32
11   98,8 [6168E7B5] [714E340E]   CRC32
12   98,8 [4181F22B] [EE529063]   CRC32
13   98,8 [103180DB] [25641418]   CRC32
14   99,9 [7E1F5084] [75120828]   CRC32
15   88,0 [661974B3] [2C230474]   CRC32
-
Яндекс.Метрика
Рейтинг@Mail.ru