[ Сегодня на трекере фрилич! Идет свободное скачивание без начисления Download ]

Ruslan Tagirov - Standing On A Bridge (2011) [Limited Edition] [FLAC|Lossless]<Electropop, Instrumental>

 

Создавать темы 17-Дек-2014 11:54

-Ruslan Tagirov - Standing On A Bridge (2011) [Limited Edition] - Год: 2011
Жанр: Electropop, Instrumental
Продолжительность: 00:57:49-Страна-производитель диска: USA
Год издания диска : 2011
Издатель (лейбл): A Different Drum
Номер по каталогу: ADDCD1320
Источник (релизер): kergarn
Наличие сканов в содержимом раздачи: Да-Кодек: FLAC
Тип рипа: image+.cue
Битрейт: Lossless-Трек лист:01. Intro (Railway Station) [3:54]
02. Standing On A Bridge [3:50]
03. Natalie [5:29]
04. Can't Wait For The Night [5:12]
05. Love's Morning [4:08]
06. Obsession [5:03]
07. Fly Away [5:14]
08. Spring Mood [5:28]
09. My Love [5:22]
10. Session One [4:57]
11. Fresh [5:09]
12. Long Way Home [4:02]

Отчёт ЕАС&#58;

Exact Audio Copy V1.0 beta 3 from 29. August 2011
Отчёт EAC об извлечении, выполненном 16. апреля 2013, 22:37
Ruslan Tagirov / Standing On A Bridge
Дисковод: _NEC    DVD_RW ND-3520A   Adapter: 0  ID: 1
Режим чтения                 : Достоверность
Использование точного потока : Да
Отключение кэша аудио        : Да
Использование указателей C2  : Нет
Коррекция смещения при чтении                     : 48
Способность читать области Lead-in и Lead-out     : Нет
Заполнение пропущенных сэмплов тишиной            : Да
Удаление блоков с тишиной в начале и конце        : Нет
При вычислениях CRC использовались нулевые сэмплы : Да
Интерфейс                                         : Установленный внешний ASPI-интерфейс
Выходной формат          : Пользовательский кодировщик
Выбранный битрейт        : 1024 kBit/s
Качество                 : Высокий
Добавление ID3-тега      : Нет
Утилита сжатия           : C:\Program Files\Exact Audio Copy\Flac\flac.exe
Дополнительные параметры : -6 -V -T "Date=%year%" -T "Genre=%genre%" %source%
TOC извлечённого CD
     Трек |   Старт  | Длительность | Начальный сектор | Конечный сектор
    ---------------------------------------------------------------------
       1  |  0:00.00 |    3:54.03   |           0      |      17552
       2  |  3:54.03 |    3:49.41   |       17553      |      34768
       3  |  7:43.44 |    5:28.62   |       34769      |      59430
       4  | 13:12.31 |    5:12.17   |       59431      |      82847
       5  | 18:24.48 |    4:08.12   |       82848      |     101459
       6  | 22:32.60 |    5:03.15   |      101460      |     124199
       7  | 27:36.00 |    5:14.30   |      124200      |     147779
       8  | 32:50.30 |    5:28.20   |      147780      |     172399
       9  | 38:18.50 |    5:22.27   |      172400      |     196576
      10  | 43:41.02 |    4:56.53   |      196577      |     218829
      11  | 48:37.55 |    5:09.18   |      218830      |     242022
      12  | 53:46.73 |    4:02.29   |      242023      |     260201
Характеристики диапазона извлечения и сообщения об ошибках
Выбранный диапазон
     Имя файла C:\Ruslan Tagirov - Standing On A Bridge.wav
     Пиковый уровень 99.2 %
     Скорость извлечения 3.5 X
     Качество диапазона 99.8 %
     CRC теста 3563BE33
     CRC копии 3563BE33
     Копирование... OK
Ошибок не произошло
AccurateRip: сводка
Трек  1  отсутствует в базе данных
Трек  2  отсутствует в базе данных
Трек  3  отсутствует в базе данных
Трек  4  отсутствует в базе данных
Трек  5  отсутствует в базе данных
Трек  6  отсутствует в базе данных
Трек  7  отсутствует в базе данных
Трек  8  отсутствует в базе данных
Трек  9  отсутствует в базе данных
Трек 10  отсутствует в базе данных
Трек 11  отсутствует в базе данных
Трек 12  отсутствует в базе данных
Ни одного трека нет в базе AccurateRip
Конец отчёта
==== Контрольная сумма отчёта 974BE0AF72F6DD6FC92235A7872FD9BCA91B19398E8A7EB00A980CBAB964885A ====

Отчёт auCDtect Task manager&#58;

-----------------------
DON'T MODIFY THIS FILE
-----------------------
PERFORMER: auCDtect Task Manager, ver. 1.6.0 RC1 build 1.6.0.1
Copyright (c) 2008-2010 y-soft. All rights reserved
http://y-soft.org
ANALYZER: auCDtect: CD records authenticity detector, version 0.8.2
Copyright (c) 2004 Oleg Berngardt. All rights reserved.
Copyright (c) 2004 Alexander Djourik. All rights reserved.
FILE: Ruslan Tagirov - Standing On A Bridge.flac
  Size: 348346783 Hash: 6D4F5670B028FE0CEEAF5AD7C48B357B Accuracy: -m0
  Conclusion: CDDA 100%
  Signature: 332017CD1D0EFCC512988C1B79E20C0E8A253944
-
Яндекс.Метрика
Рейтинг@Mail.ru