JOY - Greatest Hits (2CD) (2012) [FLAC|Lossless]<Pop, Disco>

 

Создавать темы 17-Дек-2014 11:52

-JOY - Greatest Hits (2CD) (2012)- Год: 2012
Жанр: Pop, Disco
Продолжительность: 02:15:51-Кодек: FLAC, (image + .cue)
Битрейт: Lossless

Треклист&#58;

CD 1

Продолжительность: 01:02:56
01. Touch By Touch [0:03:54.36]
02. Valerie [0:04:17.58]
03. Sweet Chinese Girls [0:03:43.56]
04. Hello [0:04:15.53]
05. Magic Eyes [0:04:08.21]
06. Gimme Gimme All Of You [0:03:59.16]
07. Lost In Hong Kong [0:03:09.10]
08. Countdown Of Love [0:04:42.72]
09. Kisses Are The Doctor's Orders [0:03:35.29]
10. Dorie's Day [0:03:57.04]
11. Venus [0:04:16.58]
12. Black Is Black [0:03:56.62]
13. 10.000 Angels [0:03:14.17]
14. Far Away [0:04:10.70]
15. It Happens Tonight [0:03:53.04]
16. She's Dancing Alone [0:03:40.53]

Отчёт ЕАС&#58;

Exact Audio Copy V0.99 prebeta 5 from 4. May 2009
Отчёт EAC об извлечении, выполненном 24. февраля 2013, 9:12
JOY / Greatest Hits (CD1)
Дисковод: Optiarc DVD RW AD-7173A Adapter: 6 ID: 0
Режим чтения : Достоверность
Использование точного потока : Да
Отключение кэша аудио : Да
Использование указателей C2 : Нет
Коррекция смещения при чтении : 48
Способность читать области Lead-in и Lead-out : Нет
Заполнение пропущенных сэмплов тишиной : Да
Удаление блоков с тишиной в начале и конце : Нет
При вычислениях CRC использовались нулевые сэмплы : Да
Интерфейс : Установленный внешний ASPI-интерфейс
Выходной формат : Пользовательский кодировщик
Выбранный битрейт : 1024 kBit/s
Качество : Высокий
Добавление ID3-тэга : Нет
Утилита сжатия : C:\Program Files\Exact Audio Copy\Flac\flac.exe
Дополнительные параметры : -8 -V %s
TOC извлечённого CD
Трек | Старт | Длительность | Начальный сектор | Конечный сектор
---------------------------------------------------------------------
1 | 0:00.00 | 3:54.36 | 0 | 17585
2 | 3:54.36 | 4:17.58 | 17586 | 36918
3 | 8:12.19 | 3:43.56 | 36919 | 53699
4 | 11:56.00 | 4:15.53 | 53700 | 72877
5 | 16:11.53 | 4:08.21 | 72878 | 91498
6 | 20:19.74 | 3:59.16 | 91499 | 109439
7 | 24:19.15 | 3:09.10 | 109440 | 123624
8 | 27:28.25 | 4:42.72 | 123625 | 144846
9 | 32:11.22 | 3:35.29 | 144847 | 161000
10 | 35:46.51 | 3:57.04 | 161001 | 178779
11 | 39:43.55 | 4:16.58 | 178780 | 198037
12 | 44:00.38 | 3:56.62 | 198038 | 215799
13 | 47:57.25 | 3:14.17 | 215800 | 230366
14 | 51:11.42 | 4:10.70 | 230367 | 249186
15 | 55:22.37 | 3:53.04 | 249187 | 266665
16 | 59:15.41 | 3:40.53 | 266666 | 283218
Характеристики диапазона извлечения и сообщения об ошибках
Выбранный диапазон
Имя файла C:\Documents and Settings\Admin\Рабочий стол\Новая папка\JOY - Greatest Hits (CD1).wav
Пиковый уровень 100.0 %
Качество диапазона 99.9 %
CRC теста 9A3074F1
CRC копии 9A3074F1
Копирование... OK
Ошибок не произошло
AccurateRip: сводка
Трек 1 нет в базе данных
Трек 2 нет в базе данных
Трек 3 нет в базе данных
Трек 4 нет в базе данных
Трек 5 нет в базе данных
Трек 6 нет в базе данных
Трек 7 нет в базе данных
Трек 8 нет в базе данных
Трек 9 нет в базе данных
Трек 10 нет в базе данных
Трек 11 нет в базе данных
Трек 12 нет в базе данных
Трек 13 нет в базе данных
Трек 14 нет в базе данных
Трек 15 нет в базе данных
Трек 16 нет в базе данных
Ни одного трека нет в базе AccurateRip
Конец отчёта

CD 2

Продолжительность: 01:12:55
01. Japanese Girls [0:03:40.36]
02. I'm In Love [0:04:02.24]
03. Joy And Tears [0:05:05.34]
04. Darling [0:04:44.18]
05. Touch Me My Dear [0:03:47.55]
06. Back To The 80's [0:03:52.17]
07. Love Is All Around [0:03:56.52]
08. Fire In The Night [0:04:20.19]
09. Cheek To Cheek [0:03:52.39]
10. Kissin' Like Friends [0:03:52.10]
11. Dreams [0:03:28.48]
12. Night Of The Nights [0:04:37.42]
13. Heartache No1 [0:03:49.09]
14. Touch By Touch 2011 [0:04:12.63]
15. Valerie 2011 [0:04:36.72]
16. Non Stop Mix [0:10:56.44]

Отчёт ЕАС&#58;

Exact Audio Copy V0.99 prebeta 5 from 4. May 2009
Отчёт EAC об извлечении, выполненном 24. февраля 2013, 9:41
JOY / Greatest Hits (CD2)
Дисковод: Optiarc DVD RW AD-7173A Adapter: 6 ID: 0
Режим чтения : Достоверность
Использование точного потока : Да
Отключение кэша аудио : Да
Использование указателей C2 : Нет
Коррекция смещения при чтении : 48
Способность читать области Lead-in и Lead-out : Нет
Заполнение пропущенных сэмплов тишиной : Да
Удаление блоков с тишиной в начале и конце : Нет
При вычислениях CRC использовались нулевые сэмплы : Да
Интерфейс : Установленный внешний ASPI-интерфейс
Выходной формат : Пользовательский кодировщик
Выбранный битрейт : 1024 kBit/s
Качество : Высокий
Добавление ID3-тэга : Нет
Утилита сжатия : C:\Program Files\Exact Audio Copy\Flac\flac.exe
Дополнительные параметры : -8 -V %s
TOC извлечённого CD
Трек | Старт | Длительность | Начальный сектор | Конечный сектор
---------------------------------------------------------------------
1 | 0:00.00 | 3:40.36 | 0 | 16535
2 | 3:40.36 | 4:02.24 | 16536 | 34709
3 | 7:42.60 | 5:05.34 | 34710 | 57618
4 | 12:48.19 | 4:44.18 | 57619 | 78936
5 | 17:32.37 | 3:47.55 | 78937 | 96016
6 | 21:20.17 | 3:52.17 | 96017 | 113433
7 | 25:12.34 | 3:56.52 | 113434 | 131185
8 | 29:09.11 | 4:20.19 | 131186 | 150704
9 | 33:29.30 | 3:52.39 | 150705 | 168143
10 | 37:21.69 | 3:52.10 | 168144 | 185553
11 | 41:14.04 | 3:28.48 | 185554 | 201201
12 | 44:42.52 | 4:37.42 | 201202 | 222018
13 | 49:20.19 | 3:49.09 | 222019 | 239202
14 | 53:09.28 | 4:12.63 | 239203 | 258165
15 | 57:22.16 | 4:36.72 | 258166 | 278937
16 | 61:59.13 | 10:56.44 | 278938 | 328181
Характеристики диапазона извлечения и сообщения об ошибках
Выбранный диапазон
Имя файла C:\Documents and Settings\Admin\Рабочий стол\Новая папка\JOY - Greatest Hits (CD2).wav
Пиковый уровень 100.0 %
Качество диапазона 100.0 %
CRC теста D4017594
CRC копии D4017594
Копирование... OK
Ошибок не произошло
AccurateRip: сводка
Трек 1 нет в базе данных
Трек 2 нет в базе данных
Трек 3 нет в базе данных
Трек 4 нет в базе данных
Трек 5 нет в базе данных
Трек 6 нет в базе данных
Трек 7 нет в базе данных
Трек 8 нет в базе данных
Трек 9 нет в базе данных
Трек 10 нет в базе данных
Трек 11 нет в базе данных
Трек 12 нет в базе данных
Трек 13 нет в базе данных
Трек 14 нет в базе данных
Трек 15 нет в базе данных
Трек 16 нет в базе данных
Ни одного трека нет в базе AccurateRip
Конец отчёта

Отчёт auCDtect Task manager&#58;

DON'T MODIFY THIS FILE
-----------------------
PERFORMER: auCDtect Task Manager, ver. 1.6.0 RC1 build 1.6.0.1
Copyright (c) 2008-2010 y-soft. All rights reserved
http://y-soft.org
ANALYZER: auCDtect: CD records authenticity detector, version 0.8.2
Copyright (c) 2004 Oleg Berngardt. All rights reserved.
Copyright (c) 2004 Alexander Djourik. All rights reserved.
FILE: JOY  - Greatest Hits (CD2).flac
  Size: 492342399 Hash: DD72A88422EA3620B0FBD80BF43A8E67 Accuracy: -m0
  Conclusion: CDDA 100%
  Signature: 195029CE41A70161FE03D1D5A8EBAC6DCF881288
FILE: JOY - Greatest Hits (CD1).flac
  Size: 440862193 Hash: FC6142136EDDF6726949F92F8D47D5FE Accuracy: -m0
  Conclusion: CDDA 100%
  Signature: 1D58656F18A8B979530464D23967E34557DBA308
-
Яндекс.Метрика
Рейтинг@Mail.ru