Nelly Furtado - The Spirit Indestructible (2012) 2CD Deluxe Edition [FLAC|Lossless]<RnB/Swing, Synth-pop, Hip Hop>

 

Создавать темы 17-Дек-2014 11:52

-Nelly Furtado - The Spirit Indestructible (2012) 2CD Deluxe Edition- Год: 2012
Жанр: RnB/Swing, Synth-pop, Hip Hop
Лэйбл: Interscope Records [B0016886-02]
Формат: 2xCD, CD, Album, Deluxe Edition
Аудио Кодек: FLAC
Аудио Битрейт: Lossless
Тип Рипа: Image+.cue+.log
Наличие Обложки: Да
Продолжительность: 01:14:37-12 сентября этого года вышел пятый студийный альбом канадской поп исполнительницы Nelly Furtado - The Spirit Indestructible. Все новое — хорошо забытое старое. С этим фактом солидарна и Nelly Furtado. Новое звучание альбома стало своеобразным возвращением к истокам творческой карьеры певицы. На формирование стилистики композиций заметно повлияли и новые музыкальные течения. По словам самой певицы, она вдохновлялась работами британской индии группы The xx и творчеством Florence + the Machine. Истинным украшениями пластинки стали композиции Miracle, Circles и Waiting for the Night.-CD 1. Треклист:
01. Spirit Indestructible :: 03:58
02. Big Hoops (Bigger The Better) :: 03:46
03. High Life ft. Ace Primo :: 04:18
04. Parking Lot :: 05:25
05. Something ft. Nas :: 03:35
06. Bucket List :: 04:22
07. The Most Beautiful Thing ft. Sara Tavares :: 03:59
08. Waiting For The Night :: 04:28
09. Miracles :: 03:26
10. Circles :: 03:51
11. Enemy :: 04:18
12. Believers (Arab Spring) :: 04:06

Отчёт EAC&#58;

Exact Audio Copy V1.0 beta 3 from 29. August 2011
EAC extraction logfile from 14. September 2012, 23:51
Nelly Furtado / The Spirit Indestructible
Used drive  : SlimtypeBD  E  DS4E1S   Adapter: 0  ID: 1
Read mode               : Secure
Utilize accurate stream : Yes
Defeat audio cache      : Yes
Make use of C2 pointers : No
Read offset correction                      : 6
Overread into Lead-In and Lead-Out          : No
Fill up missing offset samples with silence : Yes
Delete leading and trailing silent blocks   : No
Null samples used in CRC calculations       : Yes
Used interface                              : Native Win32 interface for Win NT & 2000
Used output format              : User Defined Encoder
Selected bitrate                : 768 kBit/s
Quality                         : High
Add ID3 tag                     : No
Command line compressor         : C:\Program Files (x86)\Exact Audio Copy\FLAC\FLAC.EXE
Additional command line options : -V -8 -T "Date=%year%" -T "Genre=%genre%" %source%
TOC of the extracted CD
     Track |   Start  |  Length  | Start sector | End sector
    ---------------------------------------------------------
        1  |  0:00.00 |  3:58.46 |         0    |    17895
        2  |  3:58.46 |  3:46.53 |     17896    |    34898
        3  |  7:45.24 |  4:18.73 |     34899    |    54321
        4  | 12:04.22 |  5:25.30 |     54322    |    78726
        5  | 17:29.52 |  3:35.16 |     78727    |    94867
        6  | 21:04.68 |  4:22.12 |     94868    |   114529
        7  | 25:27.05 |  3:59.07 |    114530    |   132461
        8  | 29:26.12 |  4:28.53 |    132462    |   152614
        9  | 33:54.65 |  3:26.43 |    152615    |   168107
       10  | 37:21.33 |  3:51.57 |    168108    |   185489
       11  | 41:13.15 |  4:18.05 |    185490    |   204844
       12  | 45:31.20 |  4:06.31 |    204845    |   223325
Range status and errors
Selected range
     Filename G:\Nelly Furtado - The Spirit Indestructible [2012]\Disc 1\Nelly Furtado - The Spirit Indestructible.wav
     Peak level 100.0 %
     Extraction speed 4.3 X
     Range quality 99.9 %
     Test CRC 9D167E6E
     Copy CRC 9D167E6E
     Copy OK
No errors occurred
AccurateRip summary
Track  1  not present in database
Track  2  not present in database
Track  3  not present in database
Track  4  not present in database
Track  5  not present in database
Track  6  not present in database
Track  7  not present in database
Track  8  not present in database
Track  9  not present in database
Track 10  not present in database
Track 11  not present in database
Track 12  not present in database
None of the tracks are present in the AccurateRip database
End of status report
==== Log checksum 2B4FE75D027892192B8D02E7605A58758796D59F7AC2ADEB17E81467CA0C8EAC ====

Отчёт auCDtect Task manager&#58;

-----------------------
DON'T MODIFY THIS FILE
-----------------------
PERFORMER: auCDtect Task Manager, ver. 1.5.1RC6 build 1.5.1.7
Copyright (c) 2008-2010 y-soft. All rights reserved
http://y-soft.org
ANALYZER: auCDtect: CD records authenticity detector, version 0.8.2
Copyright (c) 2004 Oleg Berngardt. All rights reserved.
Copyright (c) 2004 Alexander Djourik. All rights reserved.
FILE: Nelly Furtado - The Spirit Indestructible.flac
  Size: 369287142 Hash: D3F79403A26ABCC3085F26059F9462F7 Accuracy: -m0
  Conclusion: CDDA 100%
  Signature: 01C6E0353E0F5EF313848390FA1C312FD370E086

Содержание CUE&#58;

REM GENRE Pop
REM DATE 2012
REM DISCID 9C0BA10C
REM COMMENT "ExactAudioCopy v1.0b3"
CATALOG 0602537145225
PERFORMER "Nelly Furtado"
TITLE "The Spirit Indestructible"
FILE "Nelly Furtado - The Spirit Indestructible.flac" WAVE
  TRACK 01 AUDIO
    TITLE "Spirit Indestructible"
    PERFORMER "Nelly Furtado"
    ISRC H2MM71204738
    INDEX 01 00:00:00
  TRACK 02 AUDIO
    TITLE "Big Hoops (Bigger The Better)"
    PERFORMER "Nelly Furtado"
    ISRC H2MM71203379
    INDEX 01 03:58:46
  TRACK 03 AUDIO
    TITLE "High Life ft. Ace Primo"
    PERFORMER "Nelly Furtado"
    ISRC H2MM71204739
    INDEX 01 07:45:24
  TRACK 04 AUDIO
    TITLE "Parking Lot"
    PERFORMER "Nelly Furtado"
    ISRC H2MM71204740
    INDEX 01 12:04:22
  TRACK 05 AUDIO
    TITLE "Something ft. Nas"
    PERFORMER "Nelly Furtado"
    ISRC H2MM71204740
    INDEX 01 17:29:52
  TRACK 06 AUDIO
    TITLE "Bucket List"
    PERFORMER "Nelly Furtado"
    ISRC H2MM71204741
    INDEX 01 21:04:68
  TRACK 07 AUDIO
    TITLE "The Most Beautiful Thing ft. Sara Tavares"
    PERFORMER "Nelly Furtado"
    ISRC H2MM71204742
    INDEX 01 25:27:05
  TRACK 08 AUDIO
    TITLE "Waiting For The Night"
    PERFORMER "Nelly Furtado"
    ISRC H2MM71204743
    INDEX 01 29:26:12
  TRACK 09 AUDIO
    TITLE "Miracles"
    PERFORMER "Nelly Furtado"
    ISRC H2MM71204743
    INDEX 01 33:54:65
  TRACK 10 AUDIO
    TITLE "Circles"
    PERFORMER "Nelly Furtado"
    ISRC H2MM71204745
    INDEX 01 37:21:33
  TRACK 11 AUDIO
    TITLE "Enemy"
    PERFORMER "Nelly Furtado"
    ISRC H2MM71204746
    INDEX 01 41:13:15
  TRACK 12 AUDIO
    TITLE "Believers (Arab Spring)"
    PERFORMER "Nelly Furtado"
    ISRC H2MM71204747
    INDEX 01 45:31:20
-CD 2. Тpeклист:
01. Hold Up :: 04:14
02. End Of The World :: 03:46
03. Dont't Leave Me :: 03:38
04. Be Ok ft. Dylan Murray :: 03:27
05. Thoughts ft. Kenyan Boys Chair :: 02:42
06. Thoughts ft. Kenyan Boys Chair (Tiesto Remix) :: 02:36
07. End Game (Bonus Track) :: 04:32

Отчёт EAC&#58;

Exact Audio Copy V1.0 beta 3 from 29. August 2011
EAC extraction logfile from 15. September 2012, 0:15
Nelly Furtado / The Spirit Indestructible
Used drive  : SlimtypeBD  E  DS4E1S   Adapter: 0  ID: 1
Read mode               : Secure
Utilize accurate stream : Yes
Defeat audio cache      : Yes
Make use of C2 pointers : No
Read offset correction                      : 6
Overread into Lead-In and Lead-Out          : No
Fill up missing offset samples with silence : Yes
Delete leading and trailing silent blocks   : No
Null samples used in CRC calculations       : Yes
Used interface                              : Native Win32 interface for Win NT & 2000
Used output format              : User Defined Encoder
Selected bitrate                : 768 kBit/s
Quality                         : High
Add ID3 tag                     : No
Command line compressor         : C:\Program Files (x86)\Exact Audio Copy\FLAC\FLAC.EXE
Additional command line options : -V -8 -T "Date=%year%" -T "Genre=%genre%" %source%
TOC of the extracted CD
     Track |   Start  |  Length  | Start sector | End sector
    ---------------------------------------------------------
        1  |  0:00.00 |  4:14.03 |         0    |    19052
        2  |  4:14.03 |  3:46.01 |     19053    |    36003
        3  |  8:00.04 |  3:38.62 |     36004    |    52415
        4  | 11:38.66 |  3:27.63 |     52416    |    68003
        5  | 15:06.54 |  2:42.56 |     68004    |    80209
        6  | 17:49.35 |  2:36.39 |     80210    |    91948
        7  | 20:25.74 |  4:32.47 |     91949    |   112395
Range status and errors
Selected range
     Filename G:\Nelly Furtado - The Spirit Indestructible [2012]\Disc 2\Nelly Furtado - The Spirit Indestructible.wav
     Peak level 99.8 %
     Extraction speed 3.8 X
     Range quality 100.0 %
     Test CRC 5D1DA01B
     Copy CRC 5D1DA01B
     Copy OK
No errors occurred
AccurateRip summary
Track  1  not present in database
Track  2  not present in database
Track  3  not present in database
Track  4  not present in database
Track  5  not present in database
Track  6  not present in database
Track  7  not present in database
None of the tracks are present in the AccurateRip database
End of status report
==== Log checksum CCB192BDD7B345885EB77848536D8DB2CC59DF2F3354C9A8EEA30106C7AD963F ====

Отчёт auCDtect Task manager&#58;

-----------------------
DON'T MODIFY THIS FILE
-----------------------
PERFORMER: auCDtect Task Manager, ver. 1.5.1RC6 build 1.5.1.7
Copyright (c) 2008-2010 y-soft. All rights reserved
http://y-soft.org
ANALYZER: auCDtect: CD records authenticity detector, version 0.8.2
Copyright (c) 2004 Oleg Berngardt. All rights reserved.
Copyright (c) 2004 Alexander Djourik. All rights reserved.
FILE: Nelly Furtado - The Spirit Indestructible.flac
  Size: 175305563 Hash: FA03DFA19BE40B141D1696FDC87C4030 Accuracy: -m0
  Conclusion: CDDA 100%
  Signature: D7FFBC4F11B3E20FDF47541AB816BBAC4C494CB8

Содержание CUE&#58;

REM GENRE Pop
REM DATE 2012
REM DISCID 4A05DA07
REM COMMENT "ExactAudioCopy v1.0b3"
CATALOG 0602537145201
PERFORMER "Nelly Furtado"
TITLE "The Spirit Indestructible"
FILE "Nelly Furtado - The Spirit Indestructible.flac" WAVE
  TRACK 01 AUDIO
    TITLE "Hold Up"
    PERFORMER "Nelly Furtado"
    ISRC H2MM71204748
    INDEX 01 00:00:00
  TRACK 02 AUDIO
    TITLE "End Of The World"
    PERFORMER "Nelly Furtado"
    ISRC H2MM71204331
    INDEX 01 04:14:03
  TRACK 03 AUDIO
    TITLE "Dont't Leave Me"
    PERFORMER "Nelly Furtado"
    ISRC H2MM71204750
    INDEX 01 08:00:04
  TRACK 04 AUDIO
    TITLE "Be Ok ft. Dylan Murray"
    PERFORMER "Nelly Furtado"
    ISRC H2MM71204750
    INDEX 01 11:38:66
  TRACK 05 AUDIO
    TITLE "Thoughts ft. Kenyan Boys Chair"
    PERFORMER "Nelly Furtado"
    ISRC H2MM71204752
    INDEX 01 15:06:54
  TRACK 06 AUDIO
    TITLE "Thoughts ft. Kenyan Boys Chair (Tiesto Remix)"
    PERFORMER "Nelly Furtado"
    ISRC H2MM71204843
    INDEX 01 17:49:35
  TRACK 07 AUDIO
    TITLE "End Game (Bonus Track)"
    PERFORMER "Nelly Furtado"
    ISRC H2MM71204796
    INDEX 00 20:25:53
    INDEX 01 20:25:74
-
Яндекс.Метрика
Рейтинг@Mail.ru