[ Сегодня на трекере фрилич! Идет свободное скачивание без начисления Download ]

Video Kids - De Luxe Collection (2001) [FLAC|Lossless]<Italo-Disco>

 

Создавать темы 17-Дек-2014 11:52

-Video Kids - De Luxe Collection (2001)- Год: 2001
Жанр: Italo-Disco
Продолжительность: 01:19:40-Издатель (лейбл): DREAM Sound Studio
Номер по каталогу: none
Источник (релизер): Yseyk
Наличие сканов в содержимом раздачи: Да-Кодек: FLAC
Тип рипа: image+.cue
Битрейт: Lossless-Треклист:01. Woodpeckers From Space (New version feat Evelyn) (04:11)
02. Do The Rap (03:37)
03. Woodpeckers From Space (club long Mix'99) (05:15)
04. Cartooney Tunes (Incl. Happy Birthday) (04:24)
05. La Bamba (04:14)
06. Woodpenkers From Space (original version) (05:58)
07. Satelite (02:59)
08. Hollywood (03:15)
09. Tico Tac (03:37)
10. Were Glad All Over (03:12)
11. I'm A Rock And Rollpecker (02:29)
12. Communication Outer Space (03:08)
13. Give Me That Banana (04:07)
14. Do You Like Surfing? (03:21)
15. Sky Rider (03:15)
16. Quick Quack (03:26)
17. Let The Music Play (03:15)
18. It's Not Easy (03:15)
19. The Zoo Song (03:22)
20. Shangalang Bang Bang (02:47)
21. Do The Rap (long version) (06:21)

Отчёт ЕАС&#58;

Exact Audio Copy V1.0 beta 3 from 29. August 2011
Отчёт EAC об извлечении, выполненном 6. августа 2012, 22:14
Video Kids / De Luxe Collection
Дисковод: TEAC DV-W524GSB Adapter: 2 ID: 1
Режим чтения : Достоверность
Использование точного потока : Да
Отключение кэша аудио : Да
Использование указателей C2 : Нет
Коррекция смещения при чтении : 6
Способность читать области Lead-in и Lead-out : Нет
Заполнение пропущенных сэмплов тишиной : Да
Удаление блоков с тишиной в начале и конце : Нет
При вычислениях CRC использовались нулевые сэмплы : Да
Интерфейс : Встроенный Win32-интерфейс для
Win NT/2000
Выходной формат : Пользовательский кодировщик
Выбранный битрейт : 128 kBit/s
Качество : Высокий
Добавление ID3-тега : Нет
Утилита сжатия : C:Program FilesFLACflac.exe
Дополнительные параметры : -V -8 -T "Date=%year%" -T "Genre=%genre%" %source%
TOC извлечённого CD
Трек | Старт | Длительность | Начальный сектор | Конечный сектор
---------------------------------------------------------------------
1 | 0:00.00 | 4:11.60 | 0 | 18884
2 | 4:11.60 | 3:37.16 | 18885 | 35175
3 | 7:49.01 | 5:15.42 | 35176 | 58842
4 | 13:04.43 | 4:24.59 | 58843 | 78701
5 | 17:29.27 | 4:14.23 | 78702 | 97774
6 | 21:43.50 | 5:58.28 | 97775 | 124652
7 | 27:42.03 | 2:59.70 | 124653 | 138147
8 | 30:41.73 | 3:15.40 | 138148 | 152812
9 | 33:57.38 | 3:37.04 | 152813 | 169091
10 | 37:34.42 | 3:12.06 | 169092 | 183497
11 | 40:46.48 | 2:29.54 | 183498 | 194726
12 | 43:16.27 | 3:08.73 | 194727 | 208899
13 | 46:25.25 | 4:07.50 | 208900 | 227474
14 | 50:33.00 | 3:21.62 | 227475 | 242611
15 | 53:54.62 | 3:15.68 | 242612 | 257304
16 | 57:10.55 | 3:26.53 | 257305 | 272807
17 | 60:37.33 | 3:15.45 | 272808 | 287477
18 | 63:53.03 | 3:15.66 | 287478 | 302168
19 | 67:08.69 | 3:22.18 | 302169 | 317336
20 | 70:31.12 | 2:47.73 | 317337 | 329934
21 | 73:19.10 | 6:21.25 | 329935 | 358534
Характеристики диапазона извлечения и сообщения об ошибках
Выбранный диапазон
Имя файла C:Video Kids - De Luxe Collection.wav
Пиковый уровень 100.0 %
Скорость извлечения 10.1 X
Качество диапазона 99.9 %
CRC теста DD23AA5D
CRC копии DD23AA5D
Копирование... OK
Ошибок не произошло
AccurateRip: сводка
Трек 1 отсутствует в базе данных
Трек 2 отсутствует в базе данных
Трек 3 отсутствует в базе данных
Трек 4 отсутствует в базе данных
Трек 5 отсутствует в базе данных
Трек 6 отсутствует в базе данных
Трек 7 отсутствует в базе данных
Трек 8 отсутствует в базе данных
Трек 9 отсутствует в базе данных
Трек 10 отсутствует в базе данных
Трек 11 отсутствует в базе данных
Трек 12 отсутствует в базе данных
Трек 13 отсутствует в базе данных
Трек 14 отсутствует в базе данных
Трек 15 отсутствует в базе данных
Трек 16 отсутствует в базе данных
Трек 17 отсутствует в базе данных
Трек 18 отсутствует в базе данных
Трек 19 отсутствует в базе данных
Трек 20 отсутствует в базе данных
Трек 21 отсутствует в базе данных
Ни одного трека нет в базе AccurateRip
Конец отчёта
==== Контрольная сумма отчёта
DCB7C3B38454F9F9AD0AAFFB1D8859CB08B0160DC88ECD392A01AA98E373E9E4 ====

Отчёт auCDtect Task manager&#58;

-----------------------
DON'T MODIFY THIS FILE
-----------------------
PERFORMER: auCDtect Task Manager, ver. 1.6.0 RC1 build 1.6.0.1
Copyright (c) 2008-2010 y-soft. All rights reserved
http://y-soft.org
ANALYZER: auCDtect: CD records authenticity detector, version 0.8.2
Copyright (c) 2004 Oleg Berngardt. All rights reserved.
Copyright (c) 2004 Alexander Djourik. All rights reserved.
FILE: Video Kids - De Luxe Collection.flac
  Size: 535316684 Hash: 99A4DF59DFF4E155A0BFC0BA8576E2DB Accuracy: -m0
  Conclusion: CDDA 100%
  Signature: AE872B25D542E8FC7BD84823B4B9817570060727
-
Яндекс.Метрика
Рейтинг@Mail.ru