[ Сегодня на трекере фрилич! Идет свободное скачивание без начисления Download ]

Real McCoy - Another Night (1995) [FLAC|Lossless]<Eurodance>

 

Создавать темы 17-Дек-2014 11:52

-Real McCoy - Another Night (1995)- Год: 1995
Страна-производитель диска: США
Издатель (лейбл): Arista
Номер по каталогу #: ARCD8778
Жанр: Eurodance
Продолжительность: 00:46:48
Кодек: FLAC (*.flac)
Битрейт: Lossless
Тип рипа: image+.cue
Спасибо: brookman
Треклист:
01. Another Night (3:56)
02. Come And Get Your Love (3:14)
03. If You Should Ever Be Lonely (Deep In The Night) (4:05)
04. Run Away (4:05)
05. Sleeping With An Angel (4:38 )
06. Ooh Boy (3:05)
07. Love & Devotion (4:30)
08. Automatic Lover (Call For Love) (3:47)
09. Operator (5:26)
10. I Want You (4:47)
11. Another Night (House Mix) (5:15)

Дополнительная информация&#58;

История этой, пожалуй, самой культовой германской группы стиля Euro Dance началась ещё в 1983 году, когда двое молодых музыкантов O-Jay и Quickmix встретились в Берлине и решили попробовать себя в звукозаписывающем бизнесе. Созданный ими звукозаписывающий лейбл Freshline Records спустя пять лет начал сотрудничать со знаменитой берлинской Wind Studios. В 1989 году O-Jay и Quickmix выпустили кавер-версию композиции Pump up the jam легендарной группы Technotronics и указали в качестве её исполнителей загадочную аббревиатуру M. C. Sar & The Real McCoy. Песня оказалась №16 в германских чартах. Через год вышел второй сингл новорождённой группы - It's on you, который всколыхнул всю Европу и был №1 в двенадцати странах, а за ним последовал довольно неплохой альбом On the move.
В 1992 году группа была реорганизована и переименована в просто Real McCoy, потому что таинственный M. C. Sar (сокращение от MC Caesar) всё равно никогда не имел под собой реально существующего человека. В составе новой группы оказались Olaf Jeglitza и две девушки: Patricia Petersen и Vanessa Mason. Дебютной песней нового трио была Let's talk about love в марте 1992 года, а первый успех принесла композиция Another night, которая в июне 1993 года взлетела в европейских чартах, а в конце 1994 была №3 и в США. Вышедший в 1994 году альбом Another night к концу 1995 года был уже дважды платиновым.

Отчёт ЕАС&#58;

Exact Audio Copy V1.0 beta 3 from 29. August 2011
EAC extraction logfile from 28. September 2013, 11:38
Real MCoy / Another Night
Used drive  : SAMSUNG DVD-ROM SD-616E   Adapter: 3  ID: 0
Read mode               : Secure
Utilize accurate stream : Yes
Defeat audio cache      : Yes
Make use of C2 pointers : No
Read offset correction                      : 12
Overread into Lead-In and Lead-Out          : No
Fill up missing offset samples with silence : Yes
Delete leading and trailing silent blocks   : No
Null samples used in CRC calculations       : Yes
Used interface                              : Native Win32 interface for Win NT & 2000
Used output format              : User Defined Encoder
Selected bitrate                : 768 kBit/s
Quality                         : High
Add ID3 tag                     : No
Command line compressor         : C:\Program Files\Exact Audio Copy\FLAC\FLAC.EXE
Additional command line options : -6 -V -T "ARTIST=%artist%" -T "TITLE=%title%" -T "ALBUM=%albumtitle%" -T "DATE=%year%" -T "TRACKNUMBER=%tracknr%" -T "GENRE=%genre%" -T "COMMENT=%comment%" -T "BAND=%albuminterpret%" -T "ALBUMARTIST=%albuminterpret%" -T "COMPOSER=%composer%" %haslyrics%--tag-from-file=LYRICS="%lyricsfile%"%haslyrics% -T "DISCNUMBER=%cdnumber%" -T "TOTALDISCS=%totalcds%" -T "TOTALTRACKS=%numtracks%" %hascover%--picture="%coverfile%"%hascover% %source% -o %dest%
TOC of the extracted CD
     Track |   Start  |  Length  | Start sector | End sector
    ---------------------------------------------------------
        1  |  0:00.00 |  3:56.25 |         0    |    17724
        2  |  3:56.25 |  3:14.45 |     17725    |    32319
        3  |  7:10.70 |  4:05.07 |     32320    |    50701
        4  | 11:16.02 |  4:05.43 |     50702    |    69119
        5  | 15:21.45 |  4:38.07 |     69120    |    89976
        6  | 19:59.52 |  3:05.33 |     89977    |   103884
        7  | 23:05.10 |  4:30.27 |    103885    |   124161
        8  | 27:35.37 |  3:47.45 |    124162    |   141231
        9  | 31:23.07 |  5:26.05 |    141232    |   165686
       10  | 36:49.12 |  4:47.15 |    165687    |   187226
       11  | 41:36.27 |  5:15.73 |    187227    |   210924
Range status and errors
Selected range
     Filename C:\Documents and Settings\Borya\Desktop\reaMcAN\Real MCoy - Another Night.wav
     Peak level 100.0 %
     Extraction speed 2.3 X
     Range quality 100.0 %
     Test CRC B2448124
     Copy CRC B2448124
     Copy OK
No errors occurred
AccurateRip summary
Track  1  accurately ripped (confidence 4)  [3B427051]  (AR v2)
Track  2  accurately ripped (confidence 4)  [763F877B]  (AR v2)
Track  3  accurately ripped (confidence 4)  [8E62328F]  (AR v2)
Track  4  accurately ripped (confidence 4)  [44699AD5]  (AR v2)
Track  5  accurately ripped (confidence 4)  [A686F7BF]  (AR v2)
Track  6  accurately ripped (confidence 4)  [801B2422]  (AR v2)
Track  7  accurately ripped (confidence 4)  [4D7DA878]  (AR v2)
Track  8  accurately ripped (confidence 4)  [40E3E65F]  (AR v2)
Track  9  accurately ripped (confidence 4)  [6B32DF57]  (AR v2)
Track 10  accurately ripped (confidence 4)  [B67C4794]  (AR v2)
Track 11  accurately ripped (confidence 4)  [5BFAD3D6]  (AR v2)
All tracks accurately ripped
End of status report
==== Log checksum 07230BDCD7CFC6B3926DF4595622552A3EE0310BB2536E4121AA859006AF4A2C ====

Отчёт auCDtect Task manager&#58;

-----------------------
DON'T MODIFY THIS FILE
-----------------------
PERFORMER: auCDtect Task Manager, ver. 1.6.0 RC1 build 1.6.0.1
Copyright (c) 2008-2010 y-soft. All rights reserved
http://y-soft.org
ANALYZER: auCDtect: CD records authenticity detector, version 0.8.2
Copyright (c) 2004 Oleg Berngardt. All rights reserved.
Copyright (c) 2004 Alexander Djourik. All rights reserved.
FILE: Real MCoy - Another Night.flac
  Size: 344016620 Hash: 64E130162035ED2CA24A419A08B3211E Accuracy: -m0
  Conclusion: CDDA 100%
  Signature: B9A87AF6E484000F43AAFB4B2A3915762887B42C
-
Яндекс.Метрика
Рейтинг@Mail.ru