[ Сегодня на трекере фрилич! Идет свободное скачивание без начисления Download ]

Inna - Party Never Ends. Part 2 (2013) Japan WPCR-15062 [FLAC|Lossless]<Euro House, Vocal>

 

Создавать темы 17-Дек-2014 11:52

-Inna - Party Never Ends. Part 2 (2013)- Год: 2013
Жанр: Euro House, Vocal
Продолжительность: 00:28:22
Лейбл: Roton / Warner Music Japan Inc
Каталожный №: WPCR-15062
Сканы: Комплект
Кодек: FLAC (image+.cue)
Битрейт: Lossless
Треклист:
01. Inna - Be My Lover [3:33]
02. Inna - World Of Love [3:38]
03. Inna - I Like You [3:20]
04. Inna feat. Reik - Dame Tu Amor [3:15]
05. Inna - Alright [3:50]
06. Inna - Tu Si Eu [3:07]
07. Inna feat. Reik - Light Up [3:15]
08. Inna feat. Daddy Yankee - More Than Friends (Adi Perez Remix Edit) [4:25]*
* Bonus Track
Discogs-

Содержимое индексной карты (.cue&#41;&#58;

REM GENRE Euro House
REM DATE 2013
REM DISCID 5906A508
REM COMMENT "ExactAudioCopy v1.0b3"
PERFORMER "Inna"
TITLE "Party Never Ends (Part 2)"
FILE "Inna - Party Never Ends (Part 2).flac" WAVE
  TRACK 01 AUDIO
    TITLE "Be My Lover"
    PERFORMER "Inna"
    INDEX 01 00:00:00
  TRACK 02 AUDIO
    TITLE "World Of Love"
    PERFORMER "Inna"
    INDEX 00 03:32:37
    INDEX 01 03:32:59
  TRACK 03 AUDIO
    TITLE "I Like You"
    PERFORMER "Inna"
    INDEX 00 07:10:31
    INDEX 01 07:10:61
  TRACK 04 AUDIO
    TITLE "Dame Tu Amor"
    PERFORMER "Inna feat. Reik"
    INDEX 01 10:31:04
  TRACK 05 AUDIO
    TITLE "Alright"
    PERFORMER "Inna"
    INDEX 00 13:45:44
    INDEX 01 13:46:03
  TRACK 06 AUDIO
    TITLE "Tu Si Eu"
    PERFORMER "Inna"
    INDEX 01 17:35:53
  TRACK 07 AUDIO
    TITLE "Light Up"
    PERFORMER "Inna feat. Reik"
    INDEX 01 20:42:37
  TRACK 08 AUDIO
    TITLE "More Than Friends (Adi Perez Remix Edit)"
    PERFORMER "Inna feat. Daddy Yankee"
    INDEX 01 23:57:00

Отчёт ЕАС&#58;

Exact Audio Copy V1.0 beta 3 from 29. August 2011
EAC extraction logfile from 18. November 2013, 23:34
Inna / Party Never Ends (Part 2)
Used drive  : ATAPI   iHAS124   C   Adapter: 4  ID: 0
Read mode               : Secure
Utilize accurate stream : Yes
Defeat audio cache      : Yes
Make use of C2 pointers : No
Read offset correction                      : 6
Overread into Lead-In and Lead-Out          : No
Fill up missing offset samples with silence : Yes
Delete leading and trailing silent blocks   : No
Null samples used in CRC calculations       : Yes
Used interface                              : Native Win32 interface for Win NT & 2000
Used output format              : User Defined Encoder
Selected bitrate                : 896 kBit/s
Quality                         : High
Add ID3 tag                     : No
Command line compressor         : C:\Program Files (x86)\Exact Audio Copy\Flac\flac.exe
Additional command line options : -V -8 -T "Genre=%genre%" -T "Artist=%artist%" -T "Title=%title%" -T "Album=%albumtitle%" -T "Date=%year%" -T "Tracknumber=%tracknr%" -T "Comment=%comment%" %source%
TOC of the extracted CD
     Track |   Start  |  Length  | Start sector | End sector
    ---------------------------------------------------------
        1  |  0:00.00 |  3:32.59 |         0    |    15958
        2  |  3:32.59 |  3:38.02 |     15959    |    32310
        3  |  7:10.61 |  3:20.18 |     32311    |    47328
        4  | 10:31.04 |  3:14.74 |     47329    |    61952
        5  | 13:46.03 |  3:49.50 |     61953    |    79177
        6  | 17:35.53 |  3:06.59 |     79178    |    93186
        7  | 20:42.37 |  3:14.38 |     93187    |   107774
        8  | 23:57.00 |  4:24.42 |    107775    |   127616
Range status and errors
Selected range
     Filename D:\Inna - Party Never Ends (Part 2).wav
     Peak level 100.0 %
     Extraction speed 7.4 X
     Range quality 100.0 %
     Test CRC 5D127655
     Copy CRC 5D127655
     Copy OK
No errors occurred
AccurateRip summary
Track  1  not present in database
Track  2  not present in database
Track  3  not present in database
Track  4  not present in database
Track  5  not present in database
Track  6  not present in database
Track  7  not present in database
Track  8  not present in database
None of the tracks are present in the AccurateRip database
End of status report
==== Log checksum E6CC3EA1EF7B4FC3EE90D727FC6DAEA109C45310E6541C0864CF1AABC85EAE25 ====

Отчёт auCDtect Task Manager&#58;

-----------------------
DON'T MODIFY THIS FILE
-----------------------
PERFORMER: auCDtect Task Manager, ver. 1.6.0 RC1 build 1.6.0.1
Copyright (c) 2008-2010 y-soft. All rights reserved
http://y-soft.org
ANALYZER: auCDtect: CD records authenticity detector, version 0.8.2
Copyright (c) 2004 Oleg Berngardt. All rights reserved.
Copyright (c) 2004 Alexander Djourik. All rights reserved.
FILE: Inna - Party Never Ends (Part 2).flac
  Size: 220515391 Hash: 5B5B9593D04B2452E31D9DA5C725B948 Accuracy: -m0
  Conclusion: CDDA 100%
  Signature: B8B835D400E9A1C32090716284B96BFCDC327F3A
-
Яндекс.Метрика
Рейтинг@Mail.ru