Secret Service - Greatest Hits (2CD) (2008) [FLAC|Lossless]<Pop>

 

Создавать темы 17-Дек-2014 11:52

-Secret Service - Greatest Hits (2CD) (2008)- Год: 2008
Жанр: Pop
Продолжительность: 02:37:47
Кодек: FLAC
Битрейт: Lossless
Тип битрейта: CBR-Треклист:

CD1

Продолжительность: 1:18:03
Трек лист:
01. Flash In The Night (Maxi Version)
02. If I Try
03. Like A Morning Song
04. When The Dancer You Have Loved Walks Out
05. Cry Softly (Time Is Morning)
06. Fire Into Ice
07. Crossing A River
08. Broken Hearts
09. L.A. Goodbye
10. King & Queen
11. I Know
12. Friday Night
13. Over Town
14. Don't Go Away
15. Stay Here The Night
16. Cutting Corners
17. Rainy Days Memories
18. Angelica & Ramone
19. The Sound Of The Rain
20. The Way You Are (With Agnetha Faltskog)
21. Flash In The Night (Antiloop Reconstruction Mix)

CD2

Продолжительность: 1:19:44
Трек лист:
01. Ten O'Clock Postman
02. Oh Susie
03. She Want's Me
04. Night City
05. Walking
06. Do You Remember
07. Why Don't You Try To Phone
08. Darling, You're My Girl
09. How I Want You
10. Give Me Your Love
11. Family Delight
12. Special Song
13. Angel On Wheels
14. When The Night Closes In
15. Hey Johnny
16. Closer Every Day
17. Aux Deux Magots
18. I'm So, I'm So, I'm So, I'm So
19. Oh Susie (Antiloop Reconstruction Mix)
20. Special Megamix

EAC CD1

Exact Audio Copy V0.99 prebeta 4 from 23. January 2008
Отчёт EAC об извлечении, выполненном 6. сентября 2009, 19:16
Secret Service / Greatest Hits CD One
Дисковод: SONY DVD RW DRU-820A Adapter: 3 ID: 0
Режим чтения : Достоверность
Использование точного потока : Да
Отключение кэша аудио : Да
Использование указателей C2 : Нет
Коррекция смещения при чтении : 102
Способность читать области Lead-in и Lead-out : Нет
Заполнение пропущенных сэмплов тишиной : Да
Удаление блоков с тишиной в начале и конце : Нет
При вычислениях CRC использовались нулевые сэмплы : Да
Интерфейс : Установленный внешний ASPI-интерфейс
Выходной формат : Внутренние WAV-операции
Формат сэмплов : 44.100 Гц; 16 бит; стерео
TOC извлечённого CD
Трек | Старт | Длительность | Начальный сектор | Конечный сектор
---------------------------------------------------------------------
1 | 0:00.00 | 5:17.47 | 0 | 23821
2 | 5:17.47 | 4:11.70 | 23822 | 42716
3 | 9:29.42 | 3:27.01 | 42717 | 58242
4 | 12:56.43 | 3:54.09 | 58243 | 75801
5 | 16:50.52 | 3:37.72 | 75802 | 92148
6 | 20:28.49 | 3:56.32 | 92149 | 109880
7 | 24:25.06 | 3:43.27 | 109881 | 126632
8 | 28:08.33 | 3:20.74 | 126633 | 141706
9 | 31:29.32 | 3:13.21 | 141707 | 156202
10 | 34:42.53 | 3:33.13 | 156203 | 172190
11 | 38:15.66 | 3:17.37 | 172191 | 187002
12 | 41:33.28 | 3:42.72 | 187003 | 203724
13 | 45:16.25 | 4:02.45 | 203725 | 221919
14 | 49:18.70 | 3:31.03 | 221920 | 237747
15 | 52:49.73 | 3:35.44 | 237748 | 253916
16 | 56:25.42 | 3:29.38 | 253917 | 269629
17 | 59:55.05 | 3:13.21 | 269630 | 284125
18 | 63:08.26 | 3:13.25 | 284126 | 298625
19 | 66:21.51 | 3:51.49 | 298626 | 315999
20 | 70:13.25 | 4:10.60 | 316000 | 334809
21 | 74:24.10 | 3:39.49 | 334810 | 351283
Характеристики диапазона извлечения и сообщения об ошибках
Выбранный диапазон
Имя файла E:\Torrents\Secret Service - Greatest Hits\CD One\Secret Service - Greatest Hits CD One.wav
Пиковый уровень 100.0 %
Качество диапазона 99.9 %
CRC копии 74A147E3
Копирование... OK
Ошибок не произошло
Конец отчёта

EAC CD2

Exact Audio Copy V0.99 prebeta 4 from 23. January 2008
Отчёт EAC об извлечении, выполненном 6. сентября 2009, 17:25
Secret Service / Greatest Hits CD Two
Дисковод: SONY DVD RW DRU-820A Adapter: 3 ID: 0
Режим чтения : Достоверность
Использование точного потока : Да
Отключение кэша аудио : Да
Использование указателей C2 : Нет
Коррекция смещения при чтении : 102
Способность читать области Lead-in и Lead-out : Нет
Заполнение пропущенных сэмплов тишиной : Да
Удаление блоков с тишиной в начале и конце : Нет
При вычислениях CRC использовались нулевые сэмплы : Да
Интерфейс : Установленный внешний ASPI-интерфейс
Выходной формат : Внутренние WAV-операции
Формат сэмплов : 44.100 Гц; 16 бит; стерео
TOC извлечённого CD
Трек | Старт | Длительность | Начальный сектор | Конечный сектор
---------------------------------------------------------------------
1 | 0:00.00 | 3:41.00 | 0 | 16574
2 | 3:41.00 | 4:38.45 | 16575 | 37469
3 | 8:19.45 | 3:08.04 | 37470 | 51573
4 | 11:27.49 | 4:28.27 | 51574 | 71700
5 | 15:56.01 | 4:09.16 | 71701 | 90391
6 | 20:05.17 | 3:31.11 | 90392 | 106227
7 | 23:36.28 | 3:27.16 | 106228 | 121768
8 | 27:03.44 | 3:43.71 | 121769 | 138564
9 | 30:47.40 | 3:51.16 | 138565 | 155905
10 | 34:38.56 | 3:39.42 | 155906 | 172372
11 | 38:18.23 | 3:25.58 | 172373 | 187805
12 | 41:44.06 | 3:35.62 | 187806 | 203992
13 | 45:19.68 | 3:03.52 | 203993 | 217769
14 | 48:23.45 | 4:07.67 | 217770 | 236361
15 | 52:31.37 | 4:21.41 | 236362 | 255977
16 | 56:53.03 | 3:13.56 | 255978 | 270508
17 | 60:06.59 | 4:13.18 | 270509 | 289501
18 | 64:20.02 | 4:10.56 | 289502 | 308307
19 | 68:30.58 | 3:41.38 | 308308 | 324920
20 | 72:12.21 | 7:32.43 | 324921 | 358863
Характеристики диапазона извлечения и сообщения об ошибках
Выбранный диапазон
Имя файла E:\Torrents\Secret Service - Greatest Hits\CD Two\Secret Service - Greatest Hits CD Two.wav
Пиковый уровень 100.0 %
Качество диапазона 100.0 %
CRC копии 5AA5410C
Копирование... OK
Ошибок не произошло
Конец отчёта

audiochecker CD1

AUDIOCHECKER v2.0 beta (build 457) - by Dester - [url=mailto:[email protected]][email protected][/url]
~~~~~~~~~~~~~~~~~~~~~~~~~~~~~~~~~~
-=== НЕ РЕДАКТИРУЙТЕ ЭТОТ ФАЙЛ! ===-
Путь: ...\CD One
1 -=- Secret Service - Greatest Hits CD One.flac -=- CDDA (99%)

audiochecker CD2

AUDIOCHECKER v2.0 beta (build 457) - by Dester - [url=mailto:[email protected]][email protected][/url]
~~~~~~~~~~~~~~~~~~~~~~~~~~~~~~~~~~
-=== НЕ РЕДАКТИРУЙТЕ ЭТОТ ФАЙЛ! ===-
Путь: ...\CD Two
1 -=- Secret Service - Greatest Hits CD Two.flac -=- CDDA (100%)
-
Яндекс.Метрика
Рейтинг@Mail.ru