[ Сегодня на трекере фрилич! Идет свободное скачивание без начисления Download ]

Desireless & Operation Of The Sun - L'Oeuf Du Dragon (2013) [FLAC|Lossless]<Pop, Technopop>

 

Создавать темы 17-Дек-2014 11:52

-Desireless & Operation Of The Sun - L'Oeuf Du Dragon (2013)- Лейбл: Urgence Disk
Каталог: KAB 120
Год: 2013
Жанр: Pop, Technopop
Продолжительность: 00:51:21
Кодек: FLAC (image+ .cue)
Битрейт: Lossless
Треклист:
01. Sertao
02. Le Sel Sur Tes Mains (feat. Cheerleader 69)
03. Joue
04. Uchronia 2012
05. John (feat. Music For The Space)
06. Voyage Voyage
07. Les Petits Poissons (feat. Cheerleader 69)
08. Sertao (Remix By Oil 10)
09. Joue (Remix By Stolearm)
10. Sertao (Remix By Electrosexual)
11. Le Sel Sur Tes Mains (Remix By Bak XIII)
12. Sertao (Remix By People Theatre)

Отчёт ЕАС&#58;

Exact Audio Copy V1.0 beta 3 from 29. August 2011
EAC extraction logfile from 9. January 2014, 22:49
Desireless And Operation Of The Sun / L'Oeuf Du Dragon
Used drive  : PLEXTOR DVDR   PX-810SA   Adapter: 2  ID: 0
Read mode               : Secure
Utilize accurate stream : Yes
Defeat audio cache      : Yes
Make use of C2 pointers : No
Read offset correction                      : 48
Overread into Lead-In and Lead-Out          : No
Fill up missing offset samples with silence : Yes
Delete leading and trailing silent blocks   : No
Null samples used in CRC calculations       : Yes
Used interface                              : Installed external ASPI interface
Used output format              : User Defined Encoder
Selected bitrate                : 1024 kBit/s
Quality                         : High
Add ID3 tag                     : No
Command line compressor         : C:\Program Files (x86)\Exact Audio Copy\Flac\flac.exe
Additional command line options : -8 -V -T "Date=%year%" -T "Genre=%genre%" -T "COMMENT=ripped by bvstudio®" %source%
TOC of the extracted CD
     Track |   Start  |  Length  | Start sector | End sector
    ---------------------------------------------------------
        1  |  0:00.00 |  3:37.32 |         0    |    16306
        2  |  3:37.32 |  3:49.18 |     16307    |    33499
        3  |  7:26.50 |  3:27.26 |     33500    |    49050
        4  | 10:54.01 |  4:16.03 |     49051    |    68253
        5  | 15:10.04 |  5:04.52 |     68254    |    91105
        6  | 20:14.56 |  4:53.11 |     91106    |   113091
        7  | 25:07.67 |  1:34.26 |    113092    |   120167
        8  | 26:42.18 |  4:09.42 |    120168    |   138884
        9  | 30:51.60 |  3:53.17 |    138885    |   156376
       10  | 34:45.02 |  5:29.02 |    156377    |   181053
       11  | 40:14.04 |  3:24.09 |    181054    |   196362
       12  | 43:38.13 |  7:43.19 |    196363    |   231106
Range status and errors
Selected range
     Filename F:\Desireless\2013 - L'Oeuf Du Dragon (2013 - Urgence Disk. Switzerland - KAB 120)\Desireless And Operation Of The Sun - L'Oeuf Du Dragon.wav
     Peak level 99.9 %
     Extraction speed 7.6 X
     Range quality 100.0 %
     Test CRC 5B4736DA
     Copy CRC 5B4736DA
     Copy OK
No errors occurred
AccurateRip summary
Track  1  accurately ripped (confidence 2)  [DAA45655]  (AR v2)
Track  2  accurately ripped (confidence 2)  [D1992371]  (AR v2)
Track  3  accurately ripped (confidence 2)  [AC312CC8]  (AR v2)
Track  4  accurately ripped (confidence 2)  [A9D2C288]  (AR v2)
Track  5  accurately ripped (confidence 2)  [75D2004D]  (AR v2)
Track  6  accurately ripped (confidence 2)  [5059A853]  (AR v2)
Track  7  accurately ripped (confidence 2)  [CDD8FBDE]  (AR v2)
Track  8  accurately ripped (confidence 2)  [69690002]  (AR v2)
Track  9  accurately ripped (confidence 2)  [A425141C]  (AR v2)
Track 10  accurately ripped (confidence 2)  [3E4A5A00]  (AR v2)
Track 11  accurately ripped (confidence 2)  [38869FB8]  (AR v2)
Track 12  accurately ripped (confidence 2)  [CA6E4D0C]  (AR v2)
All tracks accurately ripped
End of status report
---- CUETools DB Plugin V2.1.5
[CTDB TOCID: Ebkp_SVFVe3Z8UO_cMnTZA3OqiU-] disk not present in database
Submit result: Ebkp_SVFVe3Z8UO_cMnTZA3OqiU- has been uploaded
==== Log checksum 4B5F2AA93714F38B1B6C3A42BCC484E37BBB206A82CDDC34F622C1D70601CDB7 ====

Отчёт auCDtect Task manager&#58;

-----------------------
DON'T MODIFY THIS FILE
-----------------------
PERFORMER: auCDtect Task Manager, ver. 1.5.1RC4 build 1.5.1.5
Copyright (c) 2008-2010 y-soft. All rights reserved
http://y-soft.org
ANALYZER: auCDtect: CD records authenticity detector, version 0.8.2
Copyright (c) 2004 Oleg Berngardt. All rights reserved.
Copyright (c) 2004 Alexander Djourik. All rights reserved.
FILE: Desireless And Operation Of The Sun - L'Oeuf Du Dragon.flac
  Size: 384029677 Hash: 5505465990582872F0A652768EBC757B Accuracy: -m0
  Conclusion: CDDA 100%
  Signature: 62A214032B23C696B329BE59ADE3928260F1285A

Содержимое индексной карты&#58;

REM GENRE Technopop
REM DATE 2013
REM DISCID 980C090C
REM COMMENT "ExactAudioCopy v1.0b3"
PERFORMER "Desireless And Operation Of The Sun"
TITLE "L'Oeuf Du Dragon"
FILE "Desireless And Operation Of The Sun - L'Oeuf Du Dragon.flac" WAVE
  TRACK 01 AUDIO
    TITLE "Sertao "
    PERFORMER "Desireless And Operation Of The Sun"
    FLAGS DCP
    INDEX 01 00:00:00
  TRACK 02 AUDIO
    TITLE "Le Sel Sur Tes Mains (feat. Cheerleader 69)"
    PERFORMER "Desireless And Operation Of The Sun"
    FLAGS DCP
    INDEX 01 03:37:32
  TRACK 03 AUDIO
    TITLE "Joue"
    PERFORMER "Desireless And Operation Of The Sun"
    FLAGS DCP
    INDEX 01 07:26:50
  TRACK 04 AUDIO
    TITLE "Uchronia 2012"
    PERFORMER "Desireless And Operation Of The Sun"
    FLAGS DCP
    INDEX 01 10:54:01
  TRACK 05 AUDIO
    TITLE "John (feat. Music For The Space)"
    PERFORMER "Desireless And Operation Of The Sun"
    FLAGS DCP
    INDEX 01 15:10:04
  TRACK 06 AUDIO
    TITLE "Voyage Voyage"
    PERFORMER "Desireless And Operation Of The Sun"
    FLAGS DCP
    INDEX 01 20:14:56
  TRACK 07 AUDIO
    TITLE "Les Petits Poissons (feat. Cheerleader 69)"
    PERFORMER "Desireless And Operation Of The Sun"
    FLAGS DCP
    INDEX 01 25:07:67
  TRACK 08 AUDIO
    TITLE "Sertao (Remix By Oil 10)"
    PERFORMER "Desireless And Operation Of The Sun"
    FLAGS DCP
    INDEX 01 26:42:18
  TRACK 09 AUDIO
    TITLE "Joue (Remix By Stolearm) "
    PERFORMER "Desireless And Operation Of The Sun"
    FLAGS DCP
    INDEX 01 30:51:60
  TRACK 10 AUDIO
    TITLE "Sertao (Remix By Electrosexual) "
    PERFORMER "Desireless And Operation Of The Sun"
    FLAGS DCP
    INDEX 01 34:45:02
  TRACK 11 AUDIO
    TITLE "Le Sel Sur Tes Mains (Remix By Bak XIII) "
    PERFORMER "Desireless And Operation Of The Sun"
    FLAGS DCP
    INDEX 01 40:14:04
  TRACK 12 AUDIO
    TITLE "Sertao (Remix By People Theatre)"
    PERFORMER "Desireless And Operation Of The Sun"
    FLAGS DCP
    INDEX 01 43:38:13
-
Яндекс.Метрика
Рейтинг@Mail.ru