DJ Bobo - Reloaded (2013) [FLAC (tracks+.cue)|Lossless]<Eurodance>

 

Создавать темы 17-Дек-2014 11:52

-DJ Bobo - Reloaded (2013)- Лейбл: Yes Music
Год: 2013
Жанр: Eurodance
Продолжительность: 00:49:38
Кодек: FLAC (tracks+.cue)
Битрейт: Lossless
Треклист:
01. Somebody Dance With Me (Remady 2013 Mix) - Dj Bobo Ft. Manu-L
02. Pray (King & White Mix)
03. Take Control - Dj Bobo & Mike Candys
04. Everybody - Dj Bobo & Inna
05. Love Is All Around (David May Mix)
06. I Believe - Dj Bobo & Kim Wilde
07. There Is A Party (King & White Mix)
08. Chihuahua - Dj Bobo & The Baseballs
09. Freedom (King & White Mix)
10. Shadows Of The Night (King & White Mix)
11. What A Feeling (Bodybangers Mix) - Dj Bobo & Irene Cara
12. Respect Yourself - Dj Bobo & Jessica Folcker
13. Let The Dream Come True (King & White Mix)
14. Reloaded Megamix (Radio Version)

Отчёт ЕАС&#58;

Exact Audio Copy V1.0 beta 3 from 29. August 2011
EAC Auslese-Logdatei vom 20. September 2013, 11:36
DJ BoBo / Reloaded
Benutztes Laufwerk : HL-DT-STDVDRAM GT30N   Adapter: 0  ID: 1
Lesemodus                      : Sicher
Benutze Accurate Stream        : Ja
Audio Puffer abgeschaltet      : Ja
Benutze C2 Fehlerinformationen : Nein
Leseoffset Korrektur                           : 103
Überlesen in das Lead-In und Lead-Out          : Nein
Fülle fehlende Offsetsample mit Stille auf     : Ja
Lösche führende und nachfolgende stille Blöcke : Nein
Null Samples gehen in CRC Berechnungen ein     : Ja
Benutzte Schnittstelle                         : Natürliche Win32 Schnittstelle für Win NT/2000/XP
Pausenbehandlung                               : Nicht erkannt, daher hinter dem vorigen Track angehängt
Benutztes Ausgabeformat            : Benutzerdefinierter Komprimierer
Gewählte Bitrate                   : 1024 kBit/s
Qualität                           : Hoch
Füge ID3 Tag hinzu                 : Nein
Kommandozeilen Komprimierer        : C:\Program Files (x86)\Exact Audio Copy\Flac\flac.exe
Zusätzliche Kommandozeilenoptionen : -8 -V -T "ARTIST=%artist%" -T "TITLE=%title%" -T "ALBUM=%albumtitle%" -T "DATE=%year%" -T "TRACKNUMBER=%tracknr2%" -T "GENRE=%genre%" -T "COMMENT=%comment%" %source% -o %dest%
TOC der ausgelesenen CD
     Track |   Start  |   Länge  | Startsektor | Endsektor
    -------------------------------------------------------
        1  |  0:00.00 |  3:01.59 |        0    |   13633
        2  |  3:01.59 |  3:51.12 |    13634    |   30970
        3  |  6:52.71 |  3:20.24 |    30971    |   45994
        4  | 10:13.20 |  3:19.72 |    45995    |   60991
        5  | 13:33.17 |  3:22.31 |    60992    |   76172
        6  | 16:55.48 |  3:33.00 |    76173    |   92147
        7  | 20:28.48 |  2:58.73 |    92148    |  105570
        8  | 23:27.46 |  3:12.48 |   105571    |  120018
        9  | 26:40.19 |  3:32.43 |   120019    |  135961
       10  | 30:12.62 |  3:12.18 |   135962    |  150379
       11  | 33:25.05 |  3:39.27 |   150380    |  166831
       12  | 37:04.32 |  2:59.03 |   166832    |  180259
       13  | 40:03.35 |  3:24.06 |   180260    |  195565
       14  | 43:27.41 |  6:10.01 |   195566    |  223316
Track  1
     Dateiname D:\Flac\01 Somebody Dance With Me (Remady 2013 Mix).wav
     Spitzenpegel 98.8 %
     Auslesegeschwindigkeit 1.2 X
     Track Qualität 100.0 %
     Kopie CRC E8FF951A
     Track ist nicht enthalten in der AccurateRip Datenbank
     Kopie OK
Track  2
     Dateiname D:\Flac\02 Pray (King & White Mix).wav
     Spitzenpegel 98.2 %
     Auslesegeschwindigkeit 1.4 X
     Track Qualität 100.0 %
     Kopie CRC EC416357
     Track ist nicht enthalten in der AccurateRip Datenbank
     Kopie OK
Track  3
     Dateiname D:\Flac\03 Take Control.wav
     Spitzenpegel 98.8 %
     Auslesegeschwindigkeit 1.4 X
     Track Qualität 100.0 %
     Kopie CRC 369C1C94
     Track ist nicht enthalten in der AccurateRip Datenbank
     Kopie OK
Track  4
     Dateiname D:\Flac\04 Everybody.wav
     Spitzenpegel 98.2 %
     Auslesegeschwindigkeit 1.5 X
     Track Qualität 100.0 %
     Kopie CRC 7155CC4A
     Track ist nicht enthalten in der AccurateRip Datenbank
     Kopie OK
Track  5
     Dateiname D:\Flac\05 Love Is All Around (David May Mix).wav
     Spitzenpegel 96.6 %
     Auslesegeschwindigkeit 1.6 X
     Track Qualität 100.0 %
     Kopie CRC CEB07ACE
     Track ist nicht enthalten in der AccurateRip Datenbank
     Kopie OK
Track  6
     Dateiname D:\Flac\06 I Believe.wav
     Spitzenpegel 98.2 %
     Auslesegeschwindigkeit 1.7 X
     Track Qualität 100.0 %
     Kopie CRC 4775EF8C
     Track ist nicht enthalten in der AccurateRip Datenbank
     Kopie OK
Track  7
     Dateiname D:\Flac\07 There Is A Party (King & White Mix).wav
     Spitzenpegel 98.2 %
     Auslesegeschwindigkeit 1.5 X
     Track Qualität 99.9 %
     Kopie CRC 180D6517
     Track ist nicht enthalten in der AccurateRip Datenbank
     Kopie OK
Track  8
     Dateiname D:\Flac\08 Chihuahua.wav
     Spitzenpegel 98.2 %
     Auslesegeschwindigkeit 1.9 X
     Track Qualität 100.0 %
     Kopie CRC F67B88B0
     Track ist nicht enthalten in der AccurateRip Datenbank
     Kopie OK
Track  9
     Dateiname D:\Flac\09 Freedom (King & White Mix).wav
     Spitzenpegel 98.2 %
     Auslesegeschwindigkeit 2.0 X
     Track Qualität 100.0 %
     Kopie CRC 1E5A0609
     Track ist nicht enthalten in der AccurateRip Datenbank
     Kopie OK
Track 10
     Dateiname D:\Flac\10 Shadows Of The Night (King & White Mix).wav
     Spitzenpegel 98.2 %
     Auslesegeschwindigkeit 1.7 X
     Track Qualität 99.9 %
     Kopie CRC 9B3D615A
     Track ist nicht enthalten in der AccurateRip Datenbank
     Kopie OK
Track 11
     Dateiname D:\Flac\11 What A Feeling (Bodybangers Mix).wav
     Spitzenpegel 98.8 %
     Auslesegeschwindigkeit 2.1 X
     Track Qualität 100.0 %
     Kopie CRC CA6A19B8
     Track ist nicht enthalten in der AccurateRip Datenbank
     Kopie OK
Track 12
     Dateiname D:\Flac\12 Respect Yourself.wav
     Spitzenpegel 87.0 %
     Auslesegeschwindigkeit 2.1 X
     Track Qualität 100.0 %
     Kopie CRC CEC0ABFC
     Track ist nicht enthalten in der AccurateRip Datenbank
     Kopie OK
Track 13
     Dateiname D:\Flac\13 Let The Dream Come True (King & White Mix).wav
     Spitzenpegel 98.2 %
     Auslesegeschwindigkeit 2.2 X
     Track Qualität 100.0 %
     Kopie CRC E76504E5
     Track ist nicht enthalten in der AccurateRip Datenbank
     Kopie OK
Track 14
     Dateiname D:\Flac\14 Reloaded Megamix (Radio Version).wav
     Spitzenpegel 98.8 %
     Auslesegeschwindigkeit 2.5 X
     Track Qualität 100.0 %
     Kopie CRC 20B0FDD2
     Track ist nicht enthalten in der AccurateRip Datenbank
     Kopie OK
Keiner der Tracks ist in der AccurateRip Datenbank vorhanden
Keine Fehler aufgetreten
Ende des Statusreports
-
Яндекс.Метрика
Рейтинг@Mail.ru